<?xml version="1.0" standalone="no"?>
<!DOCTYPE svg PUBLIC "-//W3C//DTD SVG 1.1//EN" "http://www.w3.org/Graphics/SVG/1.1/DTD/svg11.dtd" >
<svg xmlns="http://www.w3.org/2000/svg">
<metadata>Generated by IcoMoon</metadata>
<defs>
<font id="icomoon" horiz-adv-x="1024">
<font-face units-per-em="1024" ascent="960" descent="-64" />
<missing-glyph horiz-adv-x="1024" />
<glyph unicode="&#x20;" horiz-adv-x="512" d="" />
<glyph unicode="&#xe900;" glyph-name="arrow-down" d="M511.991 263.898c-7.497 0-14.524 1.173-21.082 3.516s-12.646 6.323-18.27 11.947l-258.577 258.577c-10.306 10.306-15.458 23.422-15.458 39.349s5.152 29.043 15.458 39.349c10.306 10.306 23.422 15.459 39.349 15.459s29.043-5.153 39.349-15.459l219.231-219.229 219.23 219.229c10.304 10.306 23.42 15.459 39.347 15.459s29.043-5.153 39.351-15.459c10.304-10.306 15.458-23.422 15.458-39.349s-5.154-29.044-15.458-39.349l-258.581-258.577c-5.619-5.623-11.708-9.604-18.27-11.947-6.558-2.342-13.585-3.516-21.077-3.516z" />
<glyph unicode="&#xe901;" glyph-name="arrow-left" d="M327.91 448c0 7.492 1.171 14.519 3.513 21.077s6.324 12.651 11.945 18.27l258.577 258.58c10.308 10.306 23.424 15.459 39.351 15.459s29.043-5.153 39.347-15.459c10.308-10.306 15.458-23.422 15.458-39.349s-5.15-29.043-15.458-39.349l-219.23-219.229 219.23-219.23c10.308-10.308 15.458-23.424 15.458-39.351s-5.15-29.043-15.458-39.347c-10.304-10.308-23.42-15.458-39.347-15.458s-29.043 5.15-39.351 15.458l-258.577 258.577c-5.621 5.623-9.603 11.712-11.945 18.27s-3.513 13.585-3.513 21.082z" />
<glyph unicode="&#xe902;" glyph-name="arrow-right" d="M696.090 448c0-7.492-1.169-14.519-3.511-21.077s-6.327-12.651-11.947-18.27l-258.579-258.581c-10.306-10.304-23.422-15.458-39.349-15.458s-29.043 5.154-39.349 15.458c-10.306 10.308-15.459 23.424-15.459 39.351s5.153 29.043 15.459 39.347l219.231 219.23-219.231 219.232c-10.306 10.305-15.459 23.422-15.459 39.349s5.153 29.043 15.459 39.349c10.306 10.306 23.422 15.459 39.349 15.459s29.043-5.153 39.349-15.459l258.579-258.578c5.619-5.623 9.604-11.712 11.947-18.27s3.511-13.585 3.511-21.082z" />
<glyph unicode="&#xe903;" glyph-name="arrow-up" d="M512.009 632.1c7.497 0 14.524-1.171 21.082-3.513s12.646-6.324 18.27-11.945l258.577-258.579c10.304-10.304 15.458-23.424 15.458-39.347 0-15.927-5.154-29.043-15.458-39.351-10.304-10.304-23.42-15.458-39.347-15.458s-29.043 5.154-39.351 15.458l-219.23 219.23-219.229-219.23c-10.306-10.304-23.422-15.458-39.349-15.458s-29.044 5.154-39.349 15.458c-10.306 10.308-15.459 23.424-15.459 39.351 0 15.923 5.153 29.043 15.459 39.347l258.58 258.579c5.619 5.621 11.708 9.603 18.27 11.945 6.558 2.342 13.585 3.513 21.077 3.513z" />
<glyph unicode="&#xe904;" glyph-name="back" d="M333.858 405.333l209.067-209.067c8.533-8.533 12.621-18.492 12.267-29.867-0.354-11.379-4.8-21.333-13.333-29.867-8.533-7.825-18.487-11.913-29.867-12.267-11.379-0.358-21.333 3.733-29.867 12.267l-281.6 281.6c-4.267 4.267-7.289 8.887-9.067 13.867-1.777 4.975-2.667 10.308-2.667 16 0 5.687 0.889 11.021 2.667 16 1.778 4.975 4.8 9.6 9.067 13.867l281.6 281.598c7.821 7.822 17.6 11.733 29.333 11.733s21.867-3.911 30.4-11.733c8.533-8.533 12.8-18.667 12.8-30.4s-4.267-21.867-12.8-30.4l-208-207.998h476.8c12.087 0 22.221-4.092 30.4-12.267 8.179-8.179 12.267-18.313 12.267-30.4 0-12.092-4.087-22.225-12.267-30.4-8.179-8.179-18.313-12.267-30.4-12.267h-476.8z" />
<glyph unicode="&#xe905;" glyph-name="balance" d="M256 106.667c-46.933 0-87.111 16.713-120.533 50.133s-50.133 73.6-50.133 120.533v341.333c0 46.933 16.711 87.111 50.133 120.533s73.6 50.133 120.533 50.133h512c46.933 0 87.113-16.711 120.533-50.133s50.133-73.6 50.133-120.533v-341.333c0-46.933-16.713-87.113-50.133-120.533s-73.6-50.133-120.533-50.133h-512zM256 618.667h512c15.646 0 30.579-1.778 44.8-5.333s27.733-9.245 40.533-17.067v22.4c0 23.467-8.354 43.555-25.067 60.267s-36.8 25.067-60.267 25.067h-512c-23.467 0-43.555-8.355-60.267-25.067s-25.067-36.8-25.067-60.267v-22.4c12.8 7.822 26.311 13.511 40.533 17.067s29.155 5.333 44.8 5.333zM177.067 480l474.667-115.2c6.4-1.421 12.8-1.421 19.2 0s12.446 4.267 18.133 8.533l148.267 123.733c-7.821 10.667-17.779 19.379-29.867 26.133s-25.246 10.133-39.467 10.133h-512c-18.489 0-34.667-4.8-48.533-14.4s-24-22.579-30.4-38.933z" />
<glyph unicode="&#xe906;" glyph-name="bank" d="M234.667 234.667v213.333c0 12.087 4.089 22.221 12.267 30.4s18.311 12.267 30.4 12.267c12.089 0 22.222-4.087 30.4-12.267s12.267-18.313 12.267-30.4v-213.333c0-12.087-4.089-22.221-12.267-30.4s-18.311-12.267-30.4-12.267c-12.089 0-22.222 4.087-30.4 12.267s-12.267 18.313-12.267 30.4zM490.667 234.667v213.333c0 12.087 4.087 22.221 12.267 30.4s18.313 12.267 30.4 12.267c12.087 0 22.221-4.087 30.4-12.267s12.267-18.313 12.267-30.4v-213.333c0-12.087-4.087-22.221-12.267-30.4s-18.313-12.267-30.4-12.267c-12.087 0-22.221 4.087-30.4 12.267s-12.267 18.313-12.267 30.4zM149.333 21.333c-12.089 0-22.222 4.087-30.4 12.267s-12.267 18.313-12.267 30.4c0 12.087 4.089 22.221 12.267 30.4s18.311 12.267 30.4 12.267h768c12.087 0 22.221-4.087 30.4-12.267s12.267-18.313 12.267-30.4c0-12.087-4.087-22.221-12.267-30.4s-18.313-12.267-30.4-12.267h-768zM746.667 234.667v213.333c0 12.087 4.087 22.221 12.267 30.4s18.313 12.267 30.4 12.267c12.087 0 22.221-4.087 30.4-12.267s12.267-18.313 12.267-30.4v-213.333c0-12.087-4.087-22.221-12.267-30.4s-18.313-12.267-30.4-12.267c-12.087 0-22.221 4.087-30.4 12.267s-12.267 18.313-12.267 30.4zM917.333 576h-772.267c-10.667 0-19.733 3.733-27.2 11.2s-11.2 16.533-11.2 27.2v23.467c0 7.822 1.955 14.578 5.867 20.267s9.067 10.311 15.467 13.867l366.933 183.467c12.087 5.689 24.887 8.533 38.4 8.533s26.313-2.845 38.4-8.533l364.8-182.4c7.821-3.555 13.687-8.889 17.6-16s5.867-14.578 5.867-22.4v-16c0-12.089-4.087-22.222-12.267-30.4s-18.313-12.267-30.4-12.267z" />
<glyph unicode="&#xe907;" glyph-name="beginner-help" d="M614.818 591.727c25.233 0 48.764 6.479 70.588 19.437 21.82 12.957 39.040 30.178 51.661 51.66 12.617 21.482 18.923 44.84 18.923 70.074s-6.306 48.762-18.923 70.586c-12.621 21.824-29.841 39.214-51.661 52.172-21.824 12.957-45.355 19.436-70.588 19.436s-49.101-6.479-71.607-19.436c-22.507-12.958-40.41-30.348-53.705-52.172-13.299-21.824-19.951-45.181-19.951-70.074s6.652-48.25 19.951-70.074c13.295-21.823 31.198-39.214 53.705-52.172s46.374-19.437 71.607-19.437zM534.003 732.898c0 22.505 7.671 41.772 23.019 57.798 15.343 16.026 34.782 24.040 58.308 24.040 23.531 0 42.965-7.672 58.308-23.017 15.347-15.345 23.019-34.781 23.019-58.31s-7.671-42.965-23.019-58.31c-15.343-15.345-34.778-23.017-58.308-23.017-23.526 0-42.965 8.013-58.308 24.040-15.347 16.027-23.019 34.952-23.019 56.775zM884.885 359.514c0-10.231-4.092-18.415-12.275-24.555-13.641 4.092-27.622 6.481-41.941 7.164-4.092 4.774-6.14 10.569-6.14 17.391v68.535c0 17.050-7.159 31.373-21.483 42.965-14.323 11.597-31.373 17.391-51.149 17.391h-47.057l-22.507-34.782-65.468 24.555 40.917 61.377c2.048 4.092 5.628 7.331 10.743 9.719 5.111 2.387 10.057 3.58 14.831 3.58h64.448c25.233 0 48.422-5.626 69.564-16.879s37.679-26.429 49.613-45.522c11.934-19.098 17.903-39.898 17.903-62.404v-68.535zM555.486 539.555l33.758-50.126-161.63 60.356c12.958 2.046 26.94 3.069 41.941 3.069h60.356c4.774 0 9.719-1.193 14.835-3.58 5.111-2.387 8.695-5.626 10.739-9.719zM896.137 107.861c15.006 5.453 25.916 11.934 32.738 19.435 6.818 7.501 10.227 18.074 10.227 31.714 0 35.46-11.251 64.107-33.758 85.926-22.507 21.824-50.125 32.738-82.863 32.738h-91.042v8.183c0 23.868-6.652 45.692-19.951 65.468-13.295 19.78-30.174 33.762-50.637 41.946l-243.467 92.066c-4.092 1.365-8.354 2.556-12.787 3.58s-8.695 1.536-12.787 1.536h-232.216c-20.46 0-38.020-7.501-52.683-22.507-14.663-15.002-21.994-33.075-21.994-54.217v-297.685c0-21.141 7.331-39.215 21.994-54.221 14.663-15.002 32.224-22.502 52.683-22.502h82.861c15.686 0 30.86 5.111 45.523 15.343s24.722 23.868 30.178 40.917l2.046 7.164 274.158-78.771c6.818-2.044 13.811-3.068 20.971-3.068s14.153 1.365 20.971 4.092l259.836 82.863zM613.794 90.47l-296.662 82.859v249.609h76.723l243.469-92.070c7.501-2.726 13.982-8.525 19.435-17.391 5.457-8.866 8.183-18.069 8.183-27.618v-8.183h-19.435c-25.916 0.683-46.545 2.214-61.892 4.604-15.343 2.385-28.813 5.282-40.405 8.695l-43.989 15.343c-8.866 2.726-17.22 1.877-25.062-2.556s-13.299-11.255-16.367-20.463c-3.068-9.203-2.556-18.069 1.536-26.594s10.227-14.153 18.411-16.879l59.332-20.463c11.597-3.409 22.677-5.794 33.25-7.159 10.569-1.365 25.062-2.044 43.473-2.044h208.687c10.231 0 19.268-2.901 27.11-8.695 7.842-5.798 13.811-12.446 17.903-19.951l5.116-9.207-258.816-81.835zM151.41 107.861v315.076h99.229v-315.076h-99.229z" />
<glyph unicode="&#xe908;" glyph-name="betting" d="M939.102 875.092h-145.263c0-24.551-8.354-45.352-25.062-62.402s-36.826-25.574-60.356-25.574c-23.526 0-43.477 8.525-59.844 25.574s-24.892 37.85-25.574 62.402h-138.099v-310.985l-66.495-14.322c-11.594-2.046-23.869-6.138-36.827-12.276-23.869-11.592-43.306-28.304-58.31-50.124-10.23-15.006-25.574-35.123-46.034-60.356h-192.32v-406.123h213.802v30.69c64.788 0.683 141.17 3.068 229.149 7.159 23.868 0.683 47.735 9.719 71.607 27.11 23.868 17.391 42.965 39.723 57.284 67.004l63.424 117.641h218.918v604.581zM230.179 89.446h-76.723v269.043h76.723v-269.043zM596.403 184.585c-8.183-15.689-19.264-29.158-33.246-40.41-13.978-11.251-26.765-17.22-38.362-17.903-88.657-3.409-163.334-5.457-224.031-6.135v228.122c35.463 42.283 61.719 75.699 78.769 100.254 7.502 11.593 17.731 20.8 30.689 27.618 6.82 3.409 13.64 5.457 20.458 6.14l47.057 11.251v-126.848l-42.965-54.217c-6.135-7.505-8.694-15.859-7.671-25.067 1.024-9.203 4.945-16.538 11.763-21.99 6.822-5.457 14.323-8.183 22.507-8.183 5.457 0 10.914 1.702 16.367 5.111v-3.068l7.164 8.183 3.068 2.048 73.655 93.090 114.573 141.171c2.726 4.092 6.135 8.183 10.227 12.275 6.822 5.457 12.958 8.525 18.415 9.207h1.024c7.501 0.683 16.026-2.731 25.574-10.231 12.275-8.866 18.923-17.562 19.947-26.086s-2.556-20.629-10.739-36.314c-9.549-17.050-57.63-106.389-144.243-268.019zM866.47 343.142h-107.413l40.922 76.723c32.734 59.332 23.868 109.12-26.598 149.356-25.233 19.778-51.49 27.62-78.771 23.529-19.093-3.41-36.826-12.276-53.193-26.598-10.231-8.866-17.050-16.026-20.459-21.483l-63.424-78.767v336.558h10.227c13.641-26.597 33.075-47.909 58.313-63.936 25.233-16.026 52.851-24.040 82.859-24.040s57.63 8.013 82.863 24.040c25.233 16.027 44.326 37.339 57.284 63.936h17.391v-459.318z" />
<glyph unicode="&#xe909;" glyph-name="box-checked" d="M512 21.333c201.131 0 301.7 0 364.181 62.485 62.485 62.481 62.485 163.051 62.485 364.181 0 201.133 0 301.699-62.485 364.183-62.481 62.484-163.051 62.484-364.181 62.484-201.133 0-301.699 0-364.183-62.484s-62.484-163.050-62.484-364.183c0-201.131 0-301.7 62.484-364.181 62.484-62.485 163.050-62.485 364.183-62.485zM683.959 577.294c12.497-12.497 12.497-32.758 0-45.254l-213.333-213.333c-12.497-12.497-32.755-12.497-45.254 0l-85.333 85.333c-12.497 12.497-12.497 32.755 0 45.252s32.758 12.497 45.255 0l62.706-62.703 190.707 190.704c12.497 12.497 32.755 12.497 45.252 0z" />
<glyph unicode="&#xe90b;" glyph-name="chat" d="M896 56.555c-5.687 0-11.021 1.067-16 3.2s-9.6 5.333-13.867 9.6l-98.133 98.133h-426.667c-23.467 0-43.555 8.358-60.267 25.067-16.711 16.713-25.067 36.8-25.067 60.267v42.667h469.333c23.467 0 43.554 8.358 60.267 25.067 16.713 16.713 25.067 36.8 25.067 60.267v298.668h42.667c23.467 0 43.554-8.356 60.267-25.067s25.067-36.8 25.067-60.267v-493.868c0-12.8-4.267-23.287-12.8-31.467-8.533-8.175-18.487-12.267-29.867-12.267zM170.667 416.021l50.133 50.133h419.2v298.668h-469.333v-348.802zM128 269.888c-11.378 0-21.333 4.092-29.867 12.267-8.533 8.179-12.8 18.667-12.8 31.467v451.202c0 23.467 8.355 43.555 25.067 60.267s36.8 25.067 60.267 25.067h469.333c23.467 0 43.554-8.356 60.267-25.067s25.067-36.8 25.067-60.267v-298.668c0-23.467-8.354-43.554-25.067-60.267-16.713-16.708-36.8-25.067-60.267-25.067h-384l-98.133-98.133c-4.267-4.267-8.889-7.467-13.867-9.6s-10.311-3.2-16-3.2z" />
<glyph unicode="&#xe90c;" glyph-name="check-normal" d="M405.321 307.699l362.039 362.037c16.661 16.662 43.678 16.662 60.339 0s16.661-43.677 0-60.34l-392.209-392.207c-16.662-16.661-43.677-16.661-60.339 0l-211.189 211.187c-16.663 16.661-16.663 43.678 0 60.339s43.677 16.661 60.339 0l181.019-181.018z" />
<glyph unicode="&#xe90d;" glyph-name="check-circe" d="M512 0c-59.021 0-114.489 11.2-166.4 33.6s-97.067 52.8-135.467 91.2c-38.4 38.4-68.8 83.554-91.2 135.467s-33.6 107.379-33.6 166.4c0 59.021 11.2 114.489 33.6 166.4s52.8 97.067 91.2 135.467c38.4 38.4 83.555 68.8 135.467 91.2s107.379 33.6 166.4 33.6c34.133 0 67.379-3.911 99.733-11.733s63.467-19.2 93.333-34.133c10.667-5.689 17.6-14.222 20.8-25.6s1.246-22.045-5.867-32c-7.113-9.955-16.533-16.355-28.267-19.2s-23.287-1.422-34.667 4.267c-22.754 10.667-46.4 18.845-70.933 24.533s-49.246 8.533-74.133 8.533c-94.578 0-175.111-33.245-241.6-99.733s-99.733-147.021-99.733-241.6c0-94.579 33.245-175.113 99.733-241.6s147.022-99.733 241.6-99.733c94.579 0 175.113 33.246 241.6 99.733s99.733 147.021 99.733 241.6c0 5.687-0.179 11.2-0.533 16.533s-0.887 10.846-1.6 16.533c-1.421 12.087 0.887 23.646 6.933 34.667s15.113 18.313 27.2 21.867c11.379 3.554 22.046 2.487 32-3.2s15.646-14.221 17.067-25.6c1.421-9.954 2.487-19.913 3.2-29.867s1.067-20.267 1.067-30.933c0-59.021-11.2-114.487-33.6-166.4s-52.8-97.067-91.2-135.467c-38.4-38.4-83.554-68.8-135.467-91.2s-107.379-33.6-166.4-33.6zM452.267 349.867l396.8 397.867c7.821 7.822 17.6 11.911 29.333 12.267s21.867-3.733 30.4-12.267c7.821-7.822 11.733-17.778 11.733-29.867s-3.913-22.045-11.733-29.867l-426.667-427.733c-8.533-8.533-18.487-12.8-29.867-12.8s-21.333 4.267-29.867 12.8l-121.6 121.6c-7.822 7.821-11.733 17.779-11.733 29.867s3.911 22.046 11.733 29.867c7.822 7.821 17.778 11.733 29.867 11.733s22.045-3.913 29.867-11.733l91.733-91.733z" />
<glyph unicode="&#xe90e;" glyph-name="clear" d="M586.667 388.267l81.067-81.067c7.821-7.821 17.779-11.733 29.867-11.733s22.046 3.913 29.867 11.733c7.821 7.821 11.733 17.779 11.733 29.867s-3.913 22.046-11.733 29.867l-81.067 81.067 81.067 81.067c7.821 7.822 11.733 17.778 11.733 29.867s-3.913 22.045-11.733 29.867c-7.821 7.822-17.779 11.733-29.867 11.733s-22.046-3.911-29.867-11.733l-81.067-81.067-81.067 81.067c-7.821 7.822-17.779 11.733-29.867 11.733s-22.046-3.911-29.867-11.733c-7.821-7.822-11.733-17.778-11.733-29.867s3.913-22.045 11.733-29.867l81.067-81.067-81.067-81.067c-7.821-7.821-11.733-17.779-11.733-29.867s3.913-22.046 11.733-29.867c7.821-7.821 17.779-11.733 29.867-11.733s22.046 3.913 29.867 11.733l81.067 81.067zM373.333 106.667c-13.511 0-26.311 3.021-38.4 9.067s-22.045 14.4-29.867 25.067l-192 256c-11.378 14.933-17.067 32-17.067 51.2s5.689 36.267 17.067 51.2l192 256c7.822 10.667 17.778 19.022 29.867 25.067s24.889 9.067 38.4 9.067h469.333c23.467 0 43.554-8.355 60.267-25.067s25.067-36.8 25.067-60.267v-512c0-23.467-8.354-43.554-25.067-60.267s-36.8-25.067-60.267-25.067h-469.333zM373.333 192h469.333v512h-469.333l-192-256 192-256z" />
<glyph unicode="&#xe90f;" glyph-name="close" d="M511.979 508.318l181.022 181.019c16.666 16.662 43.678 16.662 60.343 0 16.661-16.663 16.661-43.677-0.004-60.34l-181.018-181.018 181.018-181.018c16.666-16.666 16.666-43.678 0-60.343-16.661-16.661-43.674-16.661-60.339 0l-181.022 181.018-181.017-181.018c-16.662-16.661-43.677-16.661-60.339 0-16.663 16.666-16.663 43.678 0 60.343l181.017 181.018-181.018 181.018c-16.663 16.663-16.663 43.677 0 60.34s43.677 16.662 60.34 0l181.017-181.018z" />
<glyph unicode="&#xe910;" glyph-name="crypto" d="M306.294 474.044c0-23.343 101.654-42.714 227.039-42.714s227.038 19.132 226.846 42.714c0 20.1-74.048 36.954-173.67 41.459v-68.433c-17.045-0.777-34.965-1.212-53.274-1.212-18.304 0-36.126 0.435-53.274 1.212v68.433c-99.618-4.506-173.667-21.359-173.667-41.459zM533.333-21.333c259.204 0 469.333 210.129 469.333 469.333 0 259.206-210.129 469.333-469.333 469.333-259.206 0-469.333-210.128-469.333-469.333 0-259.204 210.128-469.333 469.333-469.333zM586.607 587.129v-60.584c115.891-5.572 202.726-28.77 202.726-56.666s-86.933-51.14-202.726-56.661v-199.966h-106.547v199.966c-115.892 5.713-202.726 28.813-202.726 56.661s86.932 51.093 202.726 56.666v60.584h-138.218v95.6h382.595v-95.6h-137.83z" />
<glyph unicode="&#xe911;" glyph-name="delete" d="M298.667 64c-23.467 0-43.555 8.354-60.267 25.067s-25.067 36.8-25.067 60.267v554.667c-12.089 0-22.222 4.089-30.4 12.267s-12.267 18.311-12.267 30.4c0 12.089 4.089 22.222 12.267 30.4s18.311 12.267 30.4 12.267h170.667c0 12.089 4.089 22.222 12.267 30.4s18.311 12.267 30.4 12.267h170.667c12.087 0 22.221-4.089 30.4-12.267s12.267-18.311 12.267-30.4h170.667c12.087 0 22.221-4.089 30.4-12.267s12.267-18.311 12.267-30.4c0-12.089-4.087-22.222-12.267-30.4s-18.313-12.267-30.4-12.267v-554.667c0-23.467-8.354-43.554-25.067-60.267s-36.8-25.067-60.267-25.067h-426.667zM426.667 234.667c12.087 0 22.221 4.087 30.4 12.267s12.267 18.313 12.267 30.4v298.667c0 12.089-4.087 22.222-12.267 30.4s-18.313 12.267-30.4 12.267c-12.089 0-22.222-4.089-30.4-12.267s-12.267-18.311-12.267-30.4v-298.667c0-12.087 4.089-22.221 12.267-30.4s18.311-12.267 30.4-12.267zM597.333 234.667c12.087 0 22.221 4.087 30.4 12.267s12.267 18.313 12.267 30.4v298.667c0 12.089-4.087 22.222-12.267 30.4s-18.313 12.267-30.4 12.267c-12.087 0-22.221-4.089-30.4-12.267s-12.267-18.311-12.267-30.4v-298.667c0-12.087 4.087-22.221 12.267-30.4s18.313-12.267 30.4-12.267z" />
<glyph unicode="&#xe912;" glyph-name="download" d="M512 295.467c-5.687 0-11.021 0.887-16 2.667s-9.6 4.8-13.867 9.067l-153.6 153.6c-8.533 8.533-12.622 18.487-12.267 29.867s4.445 21.333 12.267 29.867c8.533 8.533 18.667 12.978 30.4 13.333s21.867-3.733 30.4-12.267l80-80v305.067c0 12.089 4.087 22.222 12.267 30.4s18.313 12.267 30.4 12.267c12.087 0 22.221-4.089 30.4-12.267s12.267-18.311 12.267-30.4v-305.067l80 80c8.533 8.533 18.667 12.622 30.4 12.267s21.867-4.8 30.4-13.333c7.821-8.533 11.913-18.487 12.267-29.867s-3.733-21.333-12.267-29.867l-153.6-153.6c-4.267-4.267-8.887-7.287-13.867-9.067s-10.313-2.667-16-2.667zM256 106.667c-23.467 0-43.555 8.354-60.267 25.067s-25.067 36.8-25.067 60.267v85.333c0 12.087 4.089 22.221 12.267 30.4s18.311 12.267 30.4 12.267c12.089 0 22.222-4.087 30.4-12.267s12.267-18.313 12.267-30.4v-85.333h512v85.333c0 12.087 4.087 22.221 12.267 30.4s18.313 12.267 30.4 12.267c12.087 0 22.221-4.087 30.4-12.267s12.267-18.313 12.267-30.4v-85.333c0-23.467-8.354-43.554-25.067-60.267s-36.8-25.067-60.267-25.067h-512z" />
<glyph unicode="&#xe913;" glyph-name="e-wallet" d="M643.665 446.327c0-38.332 31.185-69.517 69.517-69.517h225.468v139.034h-225.468c-38.327-0.004-69.517-31.185-69.517-69.517zM751.198 444.284c0-15.475-12.544-28.023-28.023-28.023-15.475 0-28.023 12.548-28.023 28.023 0 15.479 12.548 28.023 28.023 28.023 15.479 0 28.023-12.548 28.023-28.023zM299.871 469.41c0.219 0.849 0.444 1.702 0.677 2.56 2.222 8.333 5.417 16.043 9.583 23.125s9.514 12.779 16.042 17.084c6.528 4.305 14.583 6.319 24.166 6.042 8.334-0.277 15-2.432 20-6.46s8.403-9.374 10.208-16.038c1.806-6.528 2.153-13.611 1.041-21.252l-1.041-5.205-80.677 0.145zM589.85 446.345c0-68.015 55.334-123.354 123.349-123.354h225.468v-90.586c0-63.543-51.695-115.238-115.238-115.238h-622.859c-63.541 0-115.236 51.695-115.236 115.238v431.223c0 63.541 51.695 115.236 115.236 115.236h622.859c63.543 0 115.238-51.695 115.238-115.236v-93.935h-225.468c-68.015 0-123.349-55.334-123.349-123.348zM289.923 339.887c12.361-5.555 26.25-8.469 41.667-8.751 10.972-0.137 22.014 1.25 33.125 4.169 11.111 2.778 21.458 7.151 31.042 13.124 9.722 6.11 17.708 13.888 23.958 23.334l-26.25 31.667c-7.5-7.778-15.972-14.029-25.417-18.752-9.306-4.582-19.514-6.733-30.625-6.455-8.75 0.277-16.042 2.219-21.875 5.833-5.694 3.61-10.208 8.333-13.542 14.165-3.194 5.833-5.347 12.361-6.458 19.584-0.587 3.887-0.922 7.778-1.005 11.665h138.712l3.337 25.003c1.527 14.306 1.041 27.985-1.459 41.041-2.5 13.193-7.155 24.93-13.959 35.209-6.806 10.277-15.764 18.471-26.875 24.582s-24.514 9.306-40.209 9.583c-16.806 0.417-32.083-2.5-45.833-8.75-13.611-6.111-25.417-14.653-35.416-25.625-10-10.833-17.986-23.334-23.959-37.5s-9.792-29.099-11.458-44.791l-0.833-8.542c-1.111-15.002 0.278-29.026 4.166-42.082s9.931-24.516 18.125-34.377c8.333-9.86 18.68-17.638 31.042-23.334z" />
<glyph unicode="&#xe914;" glyph-name="edit" d="M213.333 149.333h60.8l417.067 417.067-60.8 60.8-417.067-417.067v-60.8zM128 64v181.333l563.2 562.133c8.533 7.822 17.954 13.867 28.267 18.133s21.154 6.4 32.533 6.4c11.379 0 22.4-2.133 33.067-6.4s19.913-10.667 27.733-19.2l58.667-59.733c8.533-7.822 14.754-17.067 18.667-27.733s5.867-21.333 5.867-32c0-11.378-1.954-22.222-5.867-32.533s-10.133-19.733-18.667-28.267l-562.133-562.133h-181.333zM660.267 596.267l-29.867 30.933 60.8-60.8-30.933 29.867z" />
<glyph unicode="&#xe915;" glyph-name="equal" d="M213.333 576c0 23.564 14.857 42.667 33.185 42.667h530.962c18.33 0 33.186-19.103 33.186-42.667s-14.857-42.667-33.186-42.667h-530.962c-18.328 0-33.185 19.103-33.185 42.667zM213.333 320c0 23.565 14.857 42.667 33.185 42.667h530.962c18.33 0 33.186-19.102 33.186-42.667s-14.857-42.667-33.186-42.667h-530.962c-18.328 0-33.185 19.102-33.185 42.667z" />
<glyph unicode="&#xe916;" glyph-name="error" d="M512 210.961c13.431 0 24.691 4.544 33.779 13.632 9.084 9.088 13.628 20.343 13.628 33.779 0 13.431-4.544 24.691-13.628 33.775-9.088 9.088-20.348 13.632-33.779 13.632s-24.691-4.544-33.779-13.632c-9.084-9.084-13.628-20.343-13.628-33.775 0-13.436 4.544-24.691 13.628-33.779 9.088-9.088 20.348-13.632 33.779-13.632zM512 400.593c13.431 0 24.691 4.544 33.779 13.628 9.084 9.088 13.628 20.348 13.628 33.779v189.629c0 13.432-4.544 24.692-13.628 33.778-9.088 9.086-20.348 13.63-33.779 13.63s-24.691-4.544-33.779-13.63c-9.084-9.086-13.628-20.346-13.628-33.778v-189.629c0-13.431 4.544-24.691 13.628-33.779 9.088-9.084 20.348-13.628 33.779-13.628zM373.333 21.333c-12.642 0-24.691 2.372-36.148 7.113s-21.531 11.456-30.222 20.147l-194.371 194.368c-8.691 8.691-15.407 18.769-20.148 30.225s-7.111 23.505-7.111 36.147v277.333c0 12.642 2.371 24.691 7.111 36.148s11.457 21.531 20.148 30.222l194.371 194.371c8.691 8.691 18.765 15.407 30.222 20.148s23.506 7.111 36.148 7.111h277.333c12.642 0 24.691-2.371 36.147-7.111s21.534-11.457 30.225-20.148l194.368-194.371c8.691-8.691 15.407-18.765 20.147-30.222s7.113-23.506 7.113-36.148v-277.333c0-12.642-2.372-24.691-7.113-36.147s-11.456-21.534-20.147-30.225l-194.368-194.368c-8.691-8.691-18.769-15.407-30.225-20.147s-23.505-7.113-36.147-7.113h-277.333zM374.519 116.147h274.962l194.372 194.372v274.962l-194.372 194.371h-274.962l-194.371-194.371v-274.962l194.371-194.372z" />
<glyph unicode="&#xe917;" glyph-name="event-sorting" d="M682.321 191.74c-11.593 0-21.483 4.092-29.666 12.275s-12.275 18.415-12.275 30.69c0 12.275 4.092 22.507 12.275 30.69s18.074 12.275 29.666 12.275h213.803c12.275 0 22.507-4.092 30.69-12.275s12.275-18.415 12.275-30.69c0-12.275-4.092-22.507-12.275-30.69s-18.415-12.275-30.69-12.275h-213.803zM554.449 448.508c-12.275 0-22.336 3.921-30.178 11.763s-11.763 17.903-11.763 30.178c0 12.275 3.921 22.507 11.763 30.69s17.903 12.276 30.178 12.276h341.675c12.275 0 22.507-4.092 30.69-12.276s12.275-18.415 12.275-30.69c0-12.275-4.092-22.507-12.275-30.69s-18.415-12.275-30.69-12.275h-341.675v1.024zM554.449 704.252c-12.275 0-22.336 4.092-30.178 12.276s-11.763 18.243-11.763 30.178c0 11.935 3.921 21.994 11.763 30.178s17.903 12.276 30.178 12.276h341.675c12.275 0 22.507-4.092 30.69-12.276s12.275-18.243 12.275-30.178c0-11.935-4.092-21.994-12.275-30.178s-18.415-12.276-30.69-12.276h-341.675zM281.315 109.901c5.456-2.044 11.252-3.068 17.391-3.068s11.935 0.853 17.391 2.556c5.456 1.707 10.571 4.945 15.345 9.719l167.768 157.538c8.866 8.183 13.299 18.415 13.299 30.69s-4.604 22.677-13.811 31.202c-9.207 8.525-20.117 12.617-32.734 12.275s-23.36-4.604-32.226-12.787l-87.974-81.839v488.983c0 12.957-4.433 23.528-13.299 31.712s-19.948 12.276-33.247 12.276c-13.299 0-24.381-4.092-33.247-12.276s-13.299-18.755-13.299-31.712v-488.983l-88.999 81.839c-8.183 8.183-18.925 12.275-32.224 12.275s-24.381-4.262-33.247-12.787c-8.866-8.525-13.128-18.756-12.787-30.69s4.944-21.995 13.81-30.178l166.745-157.538c4.774-4.774 9.889-7.842 15.345-9.207z" />
<glyph unicode="&#xe918;" glyph-name="exchange" d="M250.636 236.753l80.815-79.791c8.184-8.866 12.105-18.923 11.764-30.178-0.341-11.251-4.774-20.8-13.299-28.642s-18.413-12.105-29.666-12.787c-11.253-0.683-20.971 3.409-29.155 12.275l-152.424 151.403c-4.774 4.77-8.013 9.545-9.718 14.319s-2.557 10.061-2.557 15.855c0 5.798 0.852 11.085 2.557 15.859s4.945 9.207 9.718 13.299l152.424 152.422c7.502 7.501 17.050 11.251 28.643 11.251s21.653-3.921 30.178-11.763c8.525-7.842 12.787-17.732 12.787-29.666s-4.092-21.995-12.276-30.178l-79.792-78.767h600.488c11.593 0 21.483-4.096 29.666-12.279s12.275-18.24 12.275-30.178c0-11.934-4.092-21.99-12.275-30.174-8.183-8.188-18.074-12.279-29.666-12.279h-600.488zM773.376 574.337h-600.487c-11.593 0-21.482 4.092-29.666 12.276s-12.276 18.243-12.276 30.178c0 11.935 4.092 21.994 12.276 30.178s18.073 12.276 29.666 12.276h600.487l-80.815 79.792c-8.183 8.866-12.105 18.925-11.763 30.178s4.774 20.8 13.299 28.643c8.525 7.843 18.411 12.105 29.666 12.787 11.251 0.682 20.971-3.41 29.154-12.276l152.422-151.401c4.774-4.774 8.013-9.548 9.719-14.322s2.556-10.059 2.556-15.856c0-5.797-0.849-11.082-2.556-15.856s-4.945-9.207-9.719-13.299l-152.422-152.423c-7.501-7.501-17.050-11.251-28.642-11.251-11.597 0-21.653 3.921-30.178 11.763s-12.787 17.732-12.787 29.666c0 11.934 4.092 21.995 12.275 30.178l79.791 78.768z" />
<glyph unicode="&#xe919;" glyph-name="transfer-money" d="M517.82 287.031c21.333 0 39.595 5.009 54.788 15.027 15.189 10.022 22.784 25.698 22.784 47.031 0 18.748-7.919 33.941-23.757 45.577s-44.122 24.887-84.847 39.757c-38.14 13.577-66.101 29.739-83.879 48.486s-26.667 43.311-26.667 73.696c0 26.505 9.212 50.586 27.636 72.243s43.473 35.717 75.153 42.182v14.545c0 9.050 3.392 16.97 10.18 23.758s14.707 10.182 23.757 10.182c9.050 0 16.973-3.394 23.757-10.182 6.788-6.788 10.185-14.707 10.185-23.758v-14.545c18.748-1.293 36.041-7.596 51.878-18.909s28.604-25.050 38.302-41.212c4.527-7.111 4.851-14.707 0.969-22.788-3.878-8.081-10.342-13.737-19.392-16.97-8.405-3.232-16.806-3.555-25.212-0.969s-15.194 7.434-20.365 14.545c-6.464 7.757-14.545 14.060-24.243 18.909-9.694 4.848-21.333 7.273-34.906 7.273-22.626 0-39.923-4.848-51.883-14.545s-17.937-22.95-17.937-39.758c0-16.808 7.433-30.061 22.302-39.759 14.869-9.694 41.698-21.009 80.486-33.937 46.545-16.811 77.577-36.527 93.090-59.153s23.275-47.514 23.275-74.667c0-18.748-3.234-35.23-9.698-49.455-6.464-14.221-15.031-26.342-25.698-36.361-10.667-10.022-23.113-18.103-37.333-24.243-14.221-6.144-29.414-10.829-45.577-14.063v-14.545c0-9.050-3.392-16.969-10.18-23.757s-14.707-10.18-23.757-10.18c-9.050 0-16.973 3.392-23.757 10.18-6.788 6.788-10.185 14.707-10.185 23.757v16.486c-24.563 5.171-45.577 14.869-63.029 29.090-17.455 14.221-31.354 32.324-41.697 54.302-3.879 9.050-3.717 17.779 0.485 26.185 4.202 8.401 10.828 14.221 19.879 17.455 8.404 3.23 16.808 3.068 25.212-0.486s14.867-9.212 19.394-16.969c9.050-16.811 20.527-29.252 34.423-37.333 13.901-8.081 29.252-12.122 46.063-12.122zM512 21.333c-72.405 0-138.99 16.486-199.758 49.455s-110.545 76.928-149.333 131.878v-64.969c0-10.991-3.717-20.203-11.151-27.639-7.434-7.433-16.646-11.149-27.636-11.149s-20.202 3.716-27.636 11.149c-7.434 7.437-11.151 16.649-11.151 27.639v155.149c0 10.991 3.717 20.203 11.151 27.639 7.435 7.433 16.647 11.149 27.636 11.149h155.151c10.99 0 20.202-3.716 27.636-11.149 7.434-7.437 11.152-16.649 11.152-27.639 0-10.987-3.718-20.198-11.152-27.635-7.434-7.433-16.646-11.153-27.636-11.153h-57.212c31.030-46.545 71.919-84.041 122.667-112.482 50.747-28.446 106.507-42.667 167.273-42.667 91.153 0 169.536 30.383 235.153 91.149 65.613 60.77 102.946 135.437 112 224 1.293 10.347 5.815 18.59 13.572 24.73 7.761 6.14 16.811 9.212 27.153 9.212 10.991 0 20.365-3.392 28.122-10.18s10.991-15.031 9.698-24.73c-4.527-54.95-18.748-106.18-42.667-153.698-23.919-47.514-54.95-88.887-93.090-124.117-38.144-35.234-81.941-63.031-131.396-83.396s-102.302-30.545-158.545-30.545zM512 797.091c-91.151 0-169.535-30.384-235.151-91.152s-102.95-135.434-112-223.998c-1.293-10.347-5.818-18.59-13.576-24.73s-16.808-9.212-27.151-9.212c-10.99 0-20.364 3.392-28.121 10.18s-10.99 15.031-9.697 24.73c4.525 54.949 18.747 106.181 42.667 153.696s54.95 88.889 93.091 124.122c38.141 35.232 81.939 63.030 131.394 83.394s102.302 30.545 158.545 30.545c72.405 0 138.991-16.485 199.757-49.455 60.77-32.97 110.545-76.929 149.333-131.879v64.97c0 10.99 3.716 20.202 11.153 27.636 7.433 7.435 16.644 11.152 27.635 11.152s20.203-3.717 27.635-11.152c7.437-7.434 11.153-16.646 11.153-27.636v-155.152c0-10.99-3.716-20.202-11.153-27.636-7.433-7.435-16.644-11.152-27.635-11.152h-155.153c-10.987 0-20.198 3.717-27.635 11.152-7.433 7.434-11.149 16.646-11.149 27.636s3.716 20.202 11.149 27.636c7.437 7.434 16.649 11.151 27.635 11.151h57.216c-31.031 46.545-71.923 84.041-122.667 112.485-50.748 28.444-106.509 42.667-167.275 42.667z" />
<glyph unicode="&#xe91a;" glyph-name="gold-bag" d="M333.939 729.592c4.859 29.52 18.179 56.568 37.649 79.043-48.259-1.020-90.196-23.891-112.567-57.32 14.333-3.855 30.342-8.604 45.952-13.233 9.522-2.826 19.559-5.801 28.966-8.49zM511.842 506.543c-12.412 0-22.507-10.099-22.507-22.511v-22.507c0-12.412 10.095-22.507 22.507-22.507s22.507 10.095 22.507 22.507v22.507c0 12.412-10.095 22.511-22.507 22.511zM192.98 665.454c47.537-40.419 76.019-70.754 90.439-97.228 48.953-27.871 106.783-46.733 167.948-54.217 11.059 22.232 34.010 37.551 60.48 37.551 26.479 0 49.434-15.326 60.493-37.568 61.436 7.484 119.189 26.213 168.239 54.263 20.403 39.417 52.907 65.964 74.010 83.19 8.247 6.732 14.763 12.049 19.375 17.1 15.829 17.341 11.251 30.741 7.117 37.186-11.298 17.594-34.684 11.663-48.653 8.121-13.85-3.511-31.322-9.122-49.818-15.061-29.73-9.546-66.726-21.426-82.935-21.949-21.248-0.669-42.995 7.043-66.027 15.224-24.802 8.811-50.445 17.92-78.758 17.92-28.51 0-54.857-9.416-80.337-18.522-27.216-9.723-52.917-18.909-76.559-14.435-15.128 2.863-40.87 10.499-65.765 17.885-20.294 6.020-41.281 12.244-57.506 16.175-19.139 4.641-42.959 10.411-53.332-8.734-4.577-8.447-6.28-21.705 11.59-36.901zM855.765 438.353c-22.575 37.133-52.523 69.367-87.023 94.251-52.898-31.343-115.017-52.698-181.099-62.003 35.985-34.091 57.745-90.807 57.745-153.054 0-5.828-0.201-11.742-0.597-17.566-0.802-11.887-10.692-20.992-22.434-20.992-0.508 0-1.020 0.021-1.536 0.055-12.403 0.836-21.777 11.571-20.941 23.974 0.324 4.817 0.491 9.707 0.491 14.532 0 41.724-12.032 80.747-31.957 107.183-12.062-18.483-32.905-30.729-56.572-30.729-23.654 0-44.493 12.233-56.555 30.694-19.921-26.483-31.979-65.591-31.979-107.149 0-3.75 0.101-7.569 0.299-11.358 0.651-12.412-8.887-23.002-21.3-23.654-0.401-0.021-0.8-0.030-1.196-0.030-11.892 0-21.83 9.314-22.458 21.329-0.239 4.57-0.36 9.182-0.36 13.713 0 62.025 21.804 118.933 57.76 153.054-45.728 6.404-89.43 18.492-130.21 36.087-17.813 7.684-34.736 16.29-50.737 25.754-34.871-25.737-65.513-59.264-87.823-96.849-34.809-58.645-47.047-121.779-34.459-177.783 12.93-57.523 51.447-105.071 111.385-137.502 64.62-34.961 153.566-52.668 264.509-52.663 3.183 0 6.396 0.013 9.617 0.043 112.269 1.020 201.869 20.211 266.313 57.050 58.163 33.242 95.215 81.037 107.157 138.202 11.644 55.744-1.156 118.037-36.041 175.411zM514.884 755.001c36.070 0 66.756-10.901 93.828-20.52 18.338-6.514 35.665-12.667 48.358-12.667 0.299 0 0.602 0.006 0.9 0.014-9.6 60.112-68.646 106.526-139.831 106.526-71.322 0-130.452-46.582-139.89-106.855 11.447 1.744 25.95 6.925 41.138 12.354 27.75 9.915 59.187 21.148 95.496 21.148zM728.832 741.649c16.316 5.237 31.791 10.199 45.393 13.94-23.002 31.089-63.386 52.070-109.559 53.046 18.705-21.588 31.731-47.394 37.035-75.557 10.206 3.136 20.066 6.301 27.132 8.571z" />
<glyph unicode="&#xe91b;" glyph-name="hamburger-menu" d="M189.966 642.372c-22.141 0-40.153 18.013-40.153 40.152s18.013 40.153 40.153 40.153h657.612c22.14 0 40.154-18.013 40.154-40.153s-18.014-40.152-40.154-40.152h-657.612zM189.966 406.903c-22.141 0-40.153 18.014-40.153 40.158 0 22.14 18.013 40.149 40.153 40.149h657.612c22.14 0 40.154-18.010 40.154-40.149 0-22.144-18.014-40.158-40.154-40.158h-657.612zM189.966 173.316c-22.141 0-40.153 18.014-40.153 40.154 0 22.144 18.013 40.154 40.153 40.154h657.612c22.14 0 40.154-18.010 40.154-40.154 0-22.14-18.014-40.154-40.154-40.154h-657.612z" />
<glyph unicode="&#xe91c;" glyph-name="help" d="M509.867 192c14.933 0 27.554 5.154 37.867 15.467s15.467 22.933 15.467 37.867c0 14.933-5.154 27.554-15.467 37.867s-22.933 15.467-37.867 15.467c-14.933 0-27.554-5.154-37.867-15.467s-15.467-22.933-15.467-37.867c0-14.933 5.154-27.554 15.467-37.867s22.933-15.467 37.867-15.467zM512 21.333c-59.021 0-114.489 11.2-166.4 33.6s-97.067 52.8-135.467 91.2c-38.4 38.4-68.8 83.554-91.2 135.467s-33.6 107.379-33.6 166.4c0 59.021 11.2 114.489 33.6 166.4s52.8 97.067 91.2 135.467c38.4 38.4 83.555 68.8 135.467 91.2s107.379 33.6 166.4 33.6c59.021 0 114.487-11.2 166.4-33.6s97.067-52.8 135.467-91.2c38.4-38.4 68.8-83.555 91.2-135.467s33.6-107.379 33.6-166.4c0-59.021-11.2-114.487-33.6-166.4s-52.8-97.067-91.2-135.467c-38.4-38.4-83.554-68.8-135.467-91.2s-107.379-33.6-166.4-33.6zM512 106.667c95.287 0 176 33.067 242.133 99.2s99.2 146.846 99.2 242.133c0 95.289-33.067 176-99.2 242.133s-146.846 99.2-242.133 99.2c-95.289 0-176-33.067-242.133-99.2s-99.2-146.845-99.2-242.133c0-95.287 33.067-176 99.2-242.133s146.845-99.2 242.133-99.2zM516.267 631.467c17.779 0 33.246-5.689 46.4-17.067s19.733-25.6 19.733-42.667c0-15.645-4.8-29.511-14.4-41.6-9.6-12.087-20.446-23.467-32.533-34.133-16.354-14.221-30.754-29.867-43.2-46.933s-18.667-36.267-18.667-57.6c0-9.954 3.733-18.313 11.2-25.067s16.179-10.133 26.133-10.133c10.667 0 19.733 3.554 27.2 10.667s12.267 16 14.4 26.667c2.846 14.933 9.246 28.267 19.2 40s20.621 22.933 32 33.6c16.354 15.646 30.4 32.713 42.133 51.2 11.733 18.489 17.6 39.111 17.6 61.867 0 36.267-14.754 65.955-44.267 89.067s-63.821 34.667-102.933 34.667c-27.021 0-52.8-5.689-77.333-17.067s-43.2-28.8-56-52.267c-4.978-8.533-6.578-17.6-4.8-27.2s6.578-16.889 14.4-21.867c9.955-5.689 20.267-7.467 30.933-5.333s19.554 8.178 26.667 18.133c7.821 10.667 17.6 18.845 29.333 24.533s24 8.533 36.8 8.533z" />
<glyph unicode="&#xe91d;" glyph-name="hide" d="M636.732 621.239c19.14-19.139 33.165-40.918 42.074-65.336 8.909-24.421 12.045-49.496 9.404-75.237 0-9.899-3.627-18.313-10.889-25.242-7.258-6.929-15.838-10.398-25.737-10.398-9.903 0-18.317 3.469-25.246 10.398s-10.394 15.343-10.394 25.242c3.298 17.161 2.308 33.66-2.97 49.498-5.282 15.84-13.53 29.369-24.751 40.588-11.217 11.22-24.747 19.799-40.585 25.739-15.842 5.94-32.67 7.26-50.487 3.96-9.899 0-18.317 3.63-25.246 10.889s-10.394 15.839-10.394 25.739c0 9.9 3.465 18.314 10.394 25.244s15.347 10.394 25.246 10.394c25.079 2.64 49.826-0.495 74.244-9.404s46.199-22.934 65.335-42.073zM511.010 713.303c-12.54 0-24.747-0.495-36.629-1.485-11.878-0.99-23.757-2.805-35.635-5.445-11.221-1.98-21.286-0.33-30.195 4.95s-15.014 13.199-18.314 23.759c-3.3 10.56-2.145 20.789 3.465 30.688s13.694 15.839 24.253 17.819c15.18 3.3 30.523 5.61 46.032 6.93s31.185 1.98 47.023 1.98c90.415 0 173.077-23.759 247.983-71.276s132.156-111.534 171.755-192.050c2.641-5.278 4.621-10.722 5.939-16.333s1.98-11.383 1.98-17.327c0-5.939-0.495-11.712-1.485-17.323s-2.803-11.055-5.444-16.333c-11.878-26.398-26.564-51.149-44.053-74.249-17.489-23.095-36.791-44.215-57.911-63.356-7.919-7.258-17.161-10.227-27.721-8.909-10.556 1.318-19.136 6.601-25.737 15.838-6.601 9.242-9.404 19.307-8.414 30.195s5.444 19.964 13.363 27.221c15.838 15.181 30.357 31.68 43.558 49.498 13.197 17.822 24.747 36.958 34.65 57.417-32.998 66.658-80.683 119.62-143.049 158.888s-130.837 58.902-205.414 58.902zM511.010 198.532c-88.435 0-169.281 23.923-242.537 71.77s-131.003 110.711-173.24 188.587c-3.3 5.278-5.775 11.055-7.425 17.323-1.65 6.272-2.475 12.706-2.475 19.302 0 6.601 0.66 12.873 1.98 18.812s3.63 11.878 6.93 17.818c13.199 26.399 28.543 51.642 46.032 75.731s37.453 46.033 59.892 65.832l-82.166 83.155c-7.26 7.92-10.724 17.324-10.394 28.214s4.125 19.964 11.384 27.223c7.26 7.259 16.499 10.889 27.719 10.889s20.459-3.63 27.718-10.889l673.162-673.162c7.262-7.262 11.055-16.337 11.388-27.226 0.329-10.889-3.469-20.292-11.388-28.211-7.258-7.262-16.499-10.893-27.716-10.893-11.221 0-20.459 3.631-27.721 10.893l-138.59 136.61c-23.1-7.258-46.528-12.702-70.289-16.333-23.757-3.631-47.846-5.444-72.265-5.444zM255.604 618.269c-19.139-17.159-36.628-35.968-52.467-56.427s-29.368-42.567-40.588-66.328c32.998-66.654 80.681-119.616 143.047-158.886 62.367-39.266 130.837-58.901 205.414-58.901 13.201 0 26.069 0.828 38.609 2.475 12.54 1.651 25.408 3.465 38.605 5.444l-35.635 37.619c-7.262-1.98-14.191-3.465-20.791-4.454-6.596-0.99-13.53-1.485-20.787-1.485-49.498 0-91.57 17.323-126.218 51.972s-51.972 76.719-51.972 126.217c0 7.262 0.495 14.191 1.485 20.791s2.475 13.53 4.455 20.788l-83.156 81.175z" />
<glyph unicode="&#xe91e;" glyph-name="info" d="M512 213.333c12.087 0 22.221 4.087 30.4 12.267s12.267 18.313 12.267 30.4v170.667c0 12.087-4.087 22.221-12.267 30.4s-18.313 12.267-30.4 12.267c-12.087 0-22.221-4.087-30.4-12.267s-12.267-18.313-12.267-30.4v-170.667c0-12.087 4.087-22.221 12.267-30.4s18.313-12.267 30.4-12.267zM512 554.667c12.087 0 22.221 4.089 30.4 12.267s12.267 18.311 12.267 30.4c0 12.089-4.087 22.222-12.267 30.4s-18.313 12.267-30.4 12.267c-12.087 0-22.221-4.089-30.4-12.267s-12.267-18.311-12.267-30.4c0-12.089 4.087-22.222 12.267-30.4s18.313-12.267 30.4-12.267zM512 0c-59.021 0-114.489 11.2-166.4 33.6s-97.067 52.8-135.467 91.2c-38.4 38.4-68.8 83.554-91.2 135.467s-33.6 107.379-33.6 166.4c0 59.021 11.2 114.489 33.6 166.4s52.8 97.067 91.2 135.467c38.4 38.4 83.555 68.8 135.467 91.2s107.379 33.6 166.4 33.6c59.021 0 114.487-11.2 166.4-33.6s97.067-52.8 135.467-91.2c38.4-38.4 68.8-83.555 91.2-135.467s33.6-107.379 33.6-166.4c0-59.021-11.2-114.487-33.6-166.4s-52.8-97.067-91.2-135.467c-38.4-38.4-83.554-68.8-135.467-91.2s-107.379-33.6-166.4-33.6zM512 85.333c95.287 0 176 33.067 242.133 99.2s99.2 146.846 99.2 242.133c0 95.287-33.067 176-99.2 242.133s-146.846 99.2-242.133 99.2c-95.289 0-176-33.067-242.133-99.2s-99.2-146.846-99.2-242.133c0-95.287 33.067-176 99.2-242.133s146.845-99.2 242.133-99.2z" />
<glyph unicode="&#xe91f;" glyph-name="letstalk" d="M85.333 167.066v575.292c0 41.603 76.678 137.49 206.298 112.181l502.186-96.719c78.729-17.055 144.849-79.465 144.849-130.083v-344.171c0-96.764-91.315-141.376-150.647-154.398l-81.067-14.515v163.418c25.758 13.986 49.178 37.833 49.178 75.059v198.568c0 29.204-38.148 65.212-83.571 75.052l-289.737 55.802c-74.785 14.602-119.025-40.72-119.025-64.723v-331.92c0-21.615 41.802-86.285 119.025-73.139l107.273 19.209c118.959 18.807 182.071-72.546 198.758-120.521l2.509 0.405-399.73-71.569c-133.845-22.784-206.298 89.301-206.298 126.771z" />
<glyph unicode="&#xe920;" glyph-name="live-support" d="M512 896c-211.2 0-384-169.6-384-380.8v-112c0-3.2 0-3.2 0-6.4s0-9.6 0-12.8c0-89.6 70.4-160 160-160 19.2 0 32 12.8 32 32v256c0 19.2-12.8 32-32 32-35.2 0-70.4-12.8-96-32v6.4c0 172.8 144 313.6 320 313.6s320-140.8 320-316.8v-3.2c-25.6 19.2-60.8 32-96 32-19.2 0-32-12.8-32-32v-256c0-19.2 12.8-32 32-32 22.4 0 44.8 6.4 64 12.8-32-67.2-89.6-118.4-160-147.2 0 3.2 0 3.2 0 6.4 0 19.2-12.8 32-32 32h-96c-19.2 0-32-12.8-32-32v-64c0-19.2 12.8-32 32-32 211.2 0 384 166.4 384 371.2v144c0 211.2-172.8 380.8-384 380.8zM471.876 319.804h-58.776v0.649c33.952 28.211 75.062 62.161 75.062 106.283 0 95.718-152.524 70.387-136.516 30.097 4.367-11.742 15.973-15.031 24.905-10.684 28.407 13.871 62.672 8.009 62.672-23.603-0.947-34.876-52.049-73.907-92.335-110.357-6.060-5.487-7.633-32.649 6.845-32.649h118.143c26.633 0 26.633 40.265 0 40.265zM632.235 279.539c26.202 0 23.172 24.060 23.172 49.924 35.251 0 34.385 36.727 0 36.727v112.533c0 5.632-4.565 10.193-10.189 10.193-64.99 0-37.649 19.413-124.557-120.448-7.078-11.507-8.499-39.006 5.781-39.006h82.581c0-25.809-3.029-49.924 23.211-49.924zM562.010 366.191v0.649l28.011 45.73c7.087 13.201 12.591 25.438 19.319 38.972h1.297c-2.163-30.844-1.613-38.673-1.613-85.35h-47.014z" />
<glyph unicode="&#xe921;" glyph-name="live-support-blod" d="M512 874.665c235.639 0 426.667-191.025 426.667-426.669 0-216.388-161.054-395.102-369.852-422.912-5.645-2.411-11.87-3.755-18.415-3.755h-367.298c-44.688 0-64.087 56.546-28.814 83.981l54.568 42.445c-76.314 77.056-123.523 183.142-123.523 300.241 0 235.644 191.025 426.669 426.667 426.669zM512 746.667c-140.8 0-256-113.067-256-253.867v-87.467c0-59.733 46.933-106.667 106.667-106.667 12.8 0 21.333 8.533 21.333 21.333v170.667c0 12.8-8.533 21.333-21.333 21.333-23.467 0-46.933-8.533-64-21.333v4.267c0 115.2 96 209.067 213.333 209.067s213.333-93.867 213.333-211.2v-2.133c-17.067 12.8-40.533 21.333-64 21.333-12.8 0-21.333-8.533-21.333-21.333v-170.667c0-12.8 8.533-21.333 21.333-21.333 14.933 0 29.867 4.267 42.667 8.533-21.333-44.8-59.733-78.933-106.667-98.133v4.267c0 12.8-8.533 21.333-21.333 21.333h-64c-12.8 0-21.333-8.533-21.333-21.333v-42.667c0-12.8 8.533-21.333 21.333-21.333 140.8 0 256 110.933 256 247.467v96c0 140.8-115.2 253.867-256 253.867zM446.063 362.534h39.185c17.754 0 17.754-26.846 0-26.846h-78.764c-9.652 0-8.603 18.112-4.563 21.769 3.971 3.593 8.101 7.223 12.256 10.88 23.946 21.056 48.761 42.876 49.303 62.69 0 21.073-22.848 24.981-41.784 15.735-5.955-2.897-13.692-0.704-16.603 7.121-10.672 26.859 91.010 43.75 91.010-20.062 0-29.278-27.153-51.84-49.728-70.596l-0.311-0.26v-0.431zM592.154 335.693c15.804 0 15.654 13.133 15.484 28.399-0.017 1.609-0.034 3.243-0.034 4.885 23.497 0 22.921 24.486 0 24.486v75.021c0 3.755-3.046 6.797-6.797 6.797-5.44 0-9.911 0.205-13.687 0.375-7.147 0.324-11.789 0.538-15.778-0.969-7.394-2.795-12.557-11.486-27.277-36.275-6.537-11.004-14.959-25.186-26.295-43.43-4.719-7.671-5.662-26.005 3.857-26.005h55.053c0-1.634-0.017-3.26-0.038-4.864-0.171-15.253-0.316-28.42 15.514-28.42zM545.92 391.1v0.435l18.675 30.485c3.068 5.722 5.692 11.166 8.384 16.755 1.451 3.008 2.927 6.067 4.493 9.225h0.866c-1.165-16.631-1.148-23.223-1.101-41.6 0.013-4.339 0.026-9.357 0.026-15.3h-31.343z" />
<glyph unicode="&#xe922;" glyph-name="lock" d="M268.186 21.333c-22.349 0-41.481 7.957-57.397 23.872s-23.873 35.051-23.873 57.399v406.349c0 22.349 7.958 41.48 23.873 57.396s35.048 23.873 57.397 23.873h40.635v81.27c0 56.212 19.81 104.127 59.429 143.746s87.532 59.429 143.746 59.429c56.213 0 104.128-19.81 143.748-59.429 39.616-39.619 59.426-87.534 59.426-143.746v-81.27h40.636c22.349 0 41.481-7.957 57.395-23.873s23.876-35.047 23.876-57.396v-406.349c0-22.349-7.962-41.485-23.876-57.399s-35.046-23.872-57.395-23.872h-487.619zM268.186 102.605h487.619v406.349h-487.619v-406.349zM511.996 224.508c22.349 0 41.481 7.957 57.395 23.872 15.919 15.915 23.876 35.051 23.876 57.399s-7.957 41.481-23.876 57.395c-15.915 15.915-35.046 23.872-57.395 23.872s-41.481-7.957-57.395-23.872c-15.915-15.915-23.876-35.046-23.876-57.395s7.962-41.485 23.876-57.399c15.915-15.915 35.046-23.872 57.395-23.872zM390.091 590.222h243.808v81.27c0 33.862-11.849 62.645-35.554 86.349-23.701 23.704-52.484 35.556-86.349 35.556-33.86 0-62.643-11.852-86.349-35.556-23.704-23.703-35.556-52.486-35.556-86.349v-81.27z" />
<glyph unicode="&#xe923;" glyph-name="logout" d="M213.333 64c-23.467 0-43.555 8.354-60.267 25.067s-25.067 36.8-25.067 60.267v597.333c0 23.467 8.355 43.555 25.067 60.267s36.8 25.067 60.267 25.067h256c12.087 0 22.221-4.089 30.4-12.267s12.267-18.311 12.267-30.4c0-12.089-4.087-22.222-12.267-30.4s-18.313-12.267-30.4-12.267h-256v-597.333h256c12.087 0 22.221-4.087 30.4-12.267s12.267-18.313 12.267-30.4c0-12.087-4.087-22.221-12.267-30.4s-18.313-12.267-30.4-12.267h-256zM732.8 405.333h-306.133c-12.089 0-22.222 4.087-30.4 12.267s-12.267 18.313-12.267 30.4c0 12.087 4.089 22.221 12.267 30.4s18.311 12.267 30.4 12.267h306.133l-80 80c-7.821 7.822-11.733 17.422-11.733 28.8s3.913 21.333 11.733 29.867c7.821 8.533 17.779 12.978 29.867 13.333s22.4-3.733 30.933-12.267l152.533-152.533c8.533-8.533 12.8-18.487 12.8-29.867s-4.267-21.333-12.8-29.867l-152.533-152.533c-8.533-8.533-18.667-12.621-30.4-12.267s-21.867 4.8-30.4 13.333c-7.821 8.533-11.554 18.667-11.2 30.4s4.446 21.513 12.267 29.333l78.933 78.933z" />
<glyph unicode="&#xe924;" glyph-name="mail" d="M170.667 124.821c-23.467 0-43.555 8.358-60.267 25.067-16.711 16.713-25.067 36.8-25.067 60.267v512.002c0 23.467 8.355 43.555 25.067 60.267s36.8 25.067 60.267 25.067h682.667c23.467 0 43.554-8.356 60.267-25.067s25.067-36.8 25.067-60.267v-512.002c0-23.467-8.354-43.554-25.067-60.267-16.713-16.708-36.8-25.067-60.267-25.067h-682.667zM853.333 636.823l-318.933-199.468c-3.554-2.133-7.287-3.733-11.2-4.8s-7.646-1.6-11.2-1.6c-3.554 0-7.287 0.533-11.2 1.6s-7.646 2.667-11.2 4.8l-318.933 199.468v-426.668h682.667v426.668zM512 508.821l341.333 213.335h-682.667l341.333-213.335zM170.667 626.156v0z" />
<glyph unicode="&#xe925;" glyph-name="menu" d="M132.741 163.558c-13.432 0-24.691 4.544-33.778 13.632-9.086 9.084-13.629 20.343-13.629 33.775s4.543 24.691 13.629 33.779c9.087 9.088 20.346 13.628 33.778 13.628h758.519c13.431 0 24.691-4.54 33.779-13.628 9.084-9.088 13.628-20.348 13.628-33.779s-4.544-24.691-13.628-33.775c-9.088-9.088-20.348-13.632-33.779-13.632h-758.519zM132.741 400.597c-13.432 0-24.691 4.544-33.778 13.628-9.086 9.088-13.629 20.348-13.629 33.779s4.543 24.691 13.629 33.775c9.087 9.088 20.346 13.632 33.778 13.632h758.519c13.431 0 24.691-4.544 33.779-13.632 9.084-9.084 13.628-20.343 13.628-33.775s-4.544-24.691-13.628-33.779c-9.088-9.084-20.348-13.628-33.779-13.628h-758.519zM132.741 637.633c-13.432 0-24.691 4.543-33.778 13.629s-13.629 20.346-13.629 33.778c0 13.432 4.543 24.691 13.629 33.777s20.346 13.63 33.778 13.63h758.519c13.431 0 24.691-4.543 33.779-13.63 9.084-9.086 13.628-20.346 13.628-33.777s-4.544-24.692-13.628-33.778c-9.088-9.086-20.348-13.629-33.779-13.629h-758.519z" />
<glyph unicode="&#xe926;" glyph-name="odds" d="M491.034 875.092l-235.283-384.639h469.545l-234.261 384.639zM491.034 710.393l81.839-134.010h-164.698l82.86 134.010zM725.295 405.547c-34.778 0-66.833-8.695-96.158-26.086s-52.685-40.751-70.076-70.076c-17.387-29.325-26.082-61.376-26.082-96.158s8.695-66.837 26.082-96.162c17.391-29.325 40.751-52.681 70.076-70.071s61.38-26.086 96.158-26.086c34.782 0 66.837 8.695 96.162 26.086s52.685 40.747 70.076 70.071c17.387 29.325 26.082 61.38 26.082 96.162s-8.695 66.833-26.082 96.158c-17.391 29.325-40.751 52.685-70.076 70.076s-61.039 26.086-95.138 26.086h-1.024zM725.295 106.837c-19.093 0-36.826 4.774-53.193 14.319-16.367 9.549-29.325 22.507-38.874 38.874s-14.323 34.099-14.323 53.197c0 19.093 4.774 36.826 14.323 53.193 9.549 16.371 22.507 29.325 38.874 38.874s34.099 14.323 53.193 14.323c19.098 0 36.83-4.774 53.197-14.323s29.325-22.502 38.874-38.874c9.549-16.367 14.323-34.099 14.323-53.193 0-19.098-4.774-36.83-14.323-53.197s-22.507-29.325-38.874-38.874c-16.367-9.545-34.099-14.319-53.197-14.319zM106.396 42.389h341.673v341.675h-341.673v-341.675zM192.326 299.157h170.837v-170.837h-170.837v170.837z" />
<glyph unicode="&#xe927;" glyph-name="phone-card" d="M938.667 704v-512c0-23.467-8.354-43.554-25.067-60.267s-36.8-25.067-60.267-25.067h-682.667c-23.467 0-43.555 8.354-60.267 25.067s-25.067 36.8-25.067 60.267v512c0 23.467 8.355 43.555 25.067 60.267s36.8 25.067 60.267 25.067h682.667c23.467 0 43.554-8.355 60.267-25.067s25.067-36.8 25.067-60.267zM170.667 618.667h682.667v85.333h-682.667v-85.333zM170.667 448v-256h682.667v256h-682.667z" />
<glyph unicode="&#xe928;" glyph-name="plus" d="M469.333 405.333h-213.333c-12.089 0-22.222 4.087-30.4 12.267s-12.267 18.313-12.267 30.4c0 12.087 4.089 22.221 12.267 30.4s18.311 12.267 30.4 12.267h213.333v213.333c0 12.089 4.087 22.222 12.267 30.4s18.313 12.267 30.4 12.267c12.087 0 22.221-4.089 30.4-12.267s12.267-18.311 12.267-30.4v-213.333h213.333c12.087 0 22.221-4.087 30.4-12.267s12.267-18.313 12.267-30.4c0-12.087-4.087-22.221-12.267-30.4s-18.313-12.267-30.4-12.267h-213.333v-213.333c0-12.087-4.087-22.221-12.267-30.4s-18.313-12.267-30.4-12.267c-12.087 0-22.221 4.087-30.4 12.267s-12.267 18.313-12.267 30.4v213.333z" />
<glyph unicode="&#xe929;" glyph-name="qrpay" d="M128 533.333v256c0 12.089 4.089 22.222 12.267 30.4s18.311 12.267 30.4 12.267h256c12.087 0 22.221-4.089 30.4-12.267s12.267-18.311 12.267-30.4v-256c0-12.087-4.087-22.221-12.267-30.4s-18.313-12.267-30.4-12.267h-256c-12.089 0-22.222 4.087-30.4 12.267s-12.267 18.313-12.267 30.4zM213.333 576h170.667v170.667h-170.667v-170.667zM128 106.667v256c0 12.087 4.089 22.221 12.267 30.4s18.311 12.267 30.4 12.267h256c12.087 0 22.221-4.087 30.4-12.267s12.267-18.313 12.267-30.4v-256c0-12.087-4.087-22.221-12.267-30.4s-18.313-12.267-30.4-12.267h-256c-12.089 0-22.222 4.087-30.4 12.267s-12.267 18.313-12.267 30.4zM213.333 149.333h170.667v170.667h-170.667v-170.667zM554.667 533.333v256c0 12.089 4.087 22.222 12.267 30.4s18.313 12.267 30.4 12.267h256c12.087 0 22.221-4.089 30.4-12.267s12.267-18.311 12.267-30.4v-256c0-12.087-4.087-22.221-12.267-30.4s-18.313-12.267-30.4-12.267h-256c-12.087 0-22.221 4.087-30.4 12.267s-12.267 18.313-12.267 30.4zM640 576h170.667v170.667h-170.667v-170.667zM810.667 64v85.333h85.333v-85.333h-85.333zM554.667 320v85.333h85.333v-85.333h-85.333zM640 234.667v85.333h85.333v-85.333h-85.333zM554.667 149.333v85.333h85.333v-85.333h-85.333zM640 64v85.333h85.333v-85.333h-85.333zM725.333 149.333v85.333h85.333v-85.333h-85.333zM725.333 320v85.333h85.333v-85.333h-85.333zM810.667 234.667v85.333h85.333v-85.333h-85.333z" />
<glyph unicode="&#xe92a;" glyph-name="quick-state" d="M512.503 608.096h-71.612v-320.194h71.612v320.194zM262.895 341.099h71.608v71.607h70.586v70.588h-70.586v71.607h-71.608v-71.607h-70.585v-70.588h70.585v-71.607zM814.281 608.096h-248.585v-320.194h248.585v320.194zM743.693 359.514h-107.409v176.973h107.409v-176.973zM874.637 810.645h-725.292c-23.869 0-43.988-8.354-60.355-25.063s-24.552-36.657-24.552-59.844v-555.476c0-23.189 8.184-43.136 24.552-59.844s36.486-25.062 60.355-25.062h725.292c23.868 0 43.985 8.354 60.356 25.062 16.367 16.708 24.55 36.655 24.55 59.844v555.476c0 23.188-8.183 43.136-24.55 59.844-16.371 16.709-36.489 25.063-60.356 25.063zM874.637 170.261h-725.292v555.476h725.292v-555.476z" />
<glyph unicode="&#xe92b;" glyph-name="radio-off" d="M170.667 448c0-188.51 152.82-341.333 341.333-341.333 188.51 0 341.333 152.823 341.333 341.333 0 188.513-152.823 341.333-341.333 341.333-188.513 0-341.333-152.82-341.333-341.333zM512 21.333c-235.642 0-426.667 191.027-426.667 426.667 0 235.642 191.025 426.667 426.667 426.667 235.639 0 426.667-191.025 426.667-426.667 0-235.639-191.027-426.667-426.667-426.667z" />
<glyph unicode="&#xe92c;" glyph-name="radio-on" d="M512 21.333c-235.642 0-426.667 191.027-426.667 426.667 0 235.642 191.025 426.667 426.667 426.667 235.639 0 426.667-191.025 426.667-426.667 0-235.639-191.027-426.667-426.667-426.667zM512 106.667c188.514 0 341.333 152.819 341.333 341.333s-152.819 341.333-341.333 341.333c-188.513 0-341.333-152.82-341.333-341.333s152.82-341.333 341.333-341.333zM512 234.667c-117.821 0-213.333 95.514-213.333 213.333s95.513 213.333 213.333 213.333c117.82 0 213.333-95.513 213.333-213.333s-95.514-213.333-213.333-213.333z" />
<glyph unicode="&#xe92d;" glyph-name="search" d="M492.608 797.091c-182.089 0-329.699-147.61-329.699-329.699 0-182.084 147.61-329.694 329.699-329.694 182.084 0 329.694 147.61 329.694 329.694 0 182.089-147.61 329.699-329.694 329.699zM85.333 467.392c0 224.932 182.342 407.275 407.275 407.275 224.93 0 407.27-182.342 407.27-407.275 0-98.496-34.965-188.826-93.163-259.255l120.589-120.589c15.151-15.147 15.151-39.706 0-54.852-15.147-15.151-39.706-15.151-54.852 0l-120.589 120.589c-70.43-58.197-160.759-93.163-259.255-93.163-224.932 0-407.275 182.34-407.275 407.27z" />
<glyph unicode="&#xe92e;" glyph-name="show" d="M512 268.975c49.728 0 91.998 17.404 126.805 52.215 34.812 34.807 52.215 77.077 52.215 126.805s-17.404 91.997-52.215 126.807c-34.807 34.81-77.077 52.215-126.805 52.215s-91.997-17.405-126.807-52.215c-34.81-34.81-52.214-77.079-52.214-126.807s17.405-91.998 52.214-126.805c34.81-34.812 77.079-52.215 126.807-52.215zM512 340.582c-29.837 0-55.198 10.445-76.083 31.33-20.887 20.885-31.329 46.246-31.329 76.083s10.443 55.198 31.329 76.083c20.885 20.887 46.246 31.33 76.083 31.33s55.198-10.443 76.083-31.33c20.885-20.885 31.33-46.246 31.33-76.083s-10.445-55.198-31.33-76.083c-20.885-20.885-46.246-31.33-76.083-31.33zM512 149.628c-88.847 0-169.904 23.868-243.17 71.607s-131.116 110.729-173.551 188.966c-3.315 5.969-5.801 12.1-7.459 18.402-1.658 6.298-2.487 12.762-2.487 19.392s0.829 13.094 2.487 19.396c1.658 6.298 4.144 12.429 7.459 18.398 42.435 78.239 100.285 141.228 173.551 188.966s154.323 71.608 243.17 71.608c88.849 0 169.903-23.869 243.17-71.608s131.115-110.728 173.551-188.966c3.315-5.969 5.803-12.1 7.458-18.398 1.66-6.302 2.487-12.766 2.487-19.396s-0.828-13.094-2.487-19.392c-1.655-6.302-4.143-12.433-7.458-18.402-42.436-78.238-100.284-141.227-173.551-188.966s-154.321-71.607-243.17-71.607zM512 229.193c74.923 0 143.714 19.725 206.37 59.179 62.66 39.45 110.562 92.659 143.714 159.625-33.152 66.97-81.054 120.177-143.714 159.628-62.656 39.451-131.447 59.177-206.37 59.177s-143.714-19.726-206.371-59.177c-62.657-39.451-110.562-92.658-143.714-159.628 33.152-66.965 81.057-120.175 143.714-159.625 62.657-39.454 131.449-59.179 206.371-59.179z" />
<glyph unicode="&#xe92f;" glyph-name="sports-order" d="M159.587 20.907c-8.866 0-16.368 3.068-22.506 9.207-6.138 6.135-9.207 13.811-9.207 23.014 0 9.207 3.069 16.879 9.207 23.019s13.64 9.207 22.506 9.207h74.677v31.71h-31.712c-8.866 0-16.368 3.072-22.505 9.207-6.138 6.14-9.207 13.811-9.207 23.019s3.069 16.879 9.207 23.014c6.138 6.14 13.64 9.207 22.505 9.207h31.712v31.714h-74.677c-8.866 0-16.368 3.068-22.506 9.207-6.138 6.135-9.207 13.807-9.207 23.014s3.069 16.879 9.207 23.019c6.138 6.135 13.64 9.207 22.506 9.207h96.16c12.276 0 22.506-4.092 30.689-12.275s12.276-18.415 12.276-30.69v-42.965c0-11.593-4.092-21.483-12.276-29.666s-18.413-12.275-30.689-12.275c12.276 0 22.506-4.092 30.689-12.275 8.184-8.188 12.276-18.415 12.276-30.69v-42.965c0-12.275-4.092-22.507-12.276-30.69s-18.413-12.275-30.689-12.275h-96.16zM159.587 319.616c-8.866 0-16.368 3.068-22.506 9.207-6.138 6.135-9.207 13.978-9.207 23.526v84.907c0 12.275 4.092 22.507 12.276 30.69s18.414 12.275 30.689 12.275h63.425v31.714h-74.677c-8.866 0-16.368 3.068-22.506 9.207-6.138 6.135-9.207 13.809-9.207 23.016s3.069 16.879 9.207 23.017c6.138 6.138 13.64 9.207 22.506 9.207h96.16c12.276 0 22.506-4.092 30.689-12.276s12.276-18.414 12.276-30.689v-74.679c0-12.275-4.092-22.502-12.276-30.69-8.183-8.183-18.413-12.275-30.689-12.275h-63.424v-31.71h74.677c8.866 0 16.368-3.068 22.505-9.207s9.207-13.811 9.207-23.019c0-9.207-3.069-16.879-9.207-23.014-6.138-6.14-13.64-9.207-22.505-9.207h-107.412zM224.035 618.325c-9.548 0-17.22 3.069-23.017 9.207s-8.695 13.981-8.695 23.529v159.584h-32.735c-8.866 0-16.368 3.069-22.506 9.207s-9.207 13.81-9.207 23.017c0 9.207 3.069 16.879 9.207 23.017s13.64 9.207 22.506 9.207h64.448c9.548 0 17.22-3.069 23.017-9.207s8.695-13.981 8.695-23.529v-191.297c0-9.548-2.898-17.391-8.695-23.529s-13.469-9.207-23.017-9.207zM426.584 149.803c-12.276 0-22.505 4.092-30.689 12.275s-12.276 18.244-12.276 30.178c0 11.934 4.092 21.995 12.276 30.178s18.414 12.275 30.689 12.275h426.583c12.275 0 22.502-4.092 30.69-12.275 8.183-8.183 12.275-18.244 12.275-30.178s-4.092-21.995-12.275-30.178c-8.188-8.183-18.415-12.275-30.69-12.275h-426.583zM426.584 405.547c-12.276 0-22.505 4.092-30.689 12.275s-12.276 18.244-12.276 30.178c0 11.934 4.092 21.995 12.276 30.178s18.414 12.275 30.689 12.275h426.583c12.275 0 22.502-4.092 30.69-12.275 8.183-8.183 12.275-18.244 12.275-30.178s-4.092-21.995-12.275-30.178c-8.188-8.183-18.415-12.275-30.69-12.275h-426.583zM426.584 661.29c-12.276 0-22.505 4.092-30.689 12.276s-12.276 18.243-12.276 30.178c0 11.935 4.092 21.994 12.276 30.178s18.414 12.276 30.689 12.276h426.583c12.275 0 22.502-4.092 30.69-12.276 8.183-8.184 12.275-18.243 12.275-30.178s-4.092-21.994-12.275-30.178c-8.188-8.183-18.415-12.276-30.69-12.276h-426.583z" />
<glyph unicode="&#xe930;" glyph-name="stake" d="M823.505 640.83c-19.776 45.693-47.228 86.271-82.347 121.734-35.123 35.463-75.874 62.743-122.249 81.838-47.74 20.46-97.523 30.689-149.355 30.689-51.83 0-101.956-10.23-150.377-30.689-45.693-19.095-86.271-46.375-121.734-81.838s-62.743-76.041-81.838-121.734c-20.46-48.421-30.69-98.547-30.69-150.377s10.23-101.615 30.69-149.355c19.095-46.374 46.375-87.125 81.838-122.244 35.463-35.123 76.041-62.575 121.734-82.351 43.647-18.415 88.999-28.305 136.058-29.666-11.597 25.233-19.78 51.49-24.555 78.767-34.098 3.413-66.492 12.617-97.181 27.622-30.689 15.002-57.969 34.782-81.838 59.332-29.326 28.642-51.831 61.888-67.517 99.742-15.686 37.85-23.188 77.231-22.505 118.153-0.682 40.917 6.82 80.303 22.505 118.153s38.021 71.267 67.005 100.252c28.984 28.984 62.402 51.319 100.252 67.005s77.236 23.187 118.153 22.505c40.922 0.682 80.303-6.82 118.157-22.505 37.85-15.686 71.095-38.191 99.738-67.517 24.55-23.869 44.331-51.149 59.332-81.838 15.006-30.689 24.213-63.084 27.622-97.182 27.277-4.774 53.534-12.958 78.767-24.555-1.361 47.059-11.251 92.411-29.666 136.058zM504.337 525.235c-27.959 8.183-54.558 19.435-79.792 33.757-7.502 4.092-13.128 9.548-16.879 16.368s-5.626 14.151-5.626 21.994c0 7.843 1.535 15.345 4.603 22.505s7.331 13.128 12.787 17.902c15.685 10.912 33.076 15.686 52.173 14.322 17.732 0.682 33.758-4.433 48.077-15.345 11.597-9.548 19.78-21.824 24.555-36.827l61.376 25.574c-7.501 23.188-20.288 42.795-38.362 58.821-18.069 16.027-39.044 25.063-62.912 27.109v14.321c-0.683 9.548-4.262 17.391-10.739 23.529-6.481 6.138-14.323 9.207-23.531 9.207s-17.050-3.069-23.526-9.207c-6.481-6.138-9.719-13.981-9.719-23.529v-14.321c-30.008-5.456-54.9-19.437-74.678-41.942-18.414-20.46-27.621-44.329-27.621-71.608 0-12.958 2.217-25.745 6.65-38.362s11.082-24.040 19.948-34.269c23.869-22.507 51.49-38.532 82.86-48.081 24.55-8.183 48.081-18.415 70.588-30.69 17.050 17.050 36.143 31.714 57.284 43.989-21.141 15.002-43.648 26.598-67.516 34.782zM419.43 351.326c-18.413 15.689-30.689 35.123-36.827 58.313l-63.425-24.55c7.502-28.646 21.483-53.538 41.942-74.679 19.778-18.415 42.624-30.69 68.541-36.826 2.726 21.824 7.842 42.624 15.343 62.4-9.549 3.409-18.074 8.525-25.575 15.343zM640.393 110.929l-30.69-9.207c-9.545-3.409-18.752-3.238-27.618 0.512s-15.684 9.378-20.459 16.879l-8.183 15.343c-5.457 8.866-7.505 18.244-6.14 28.134 1.365 9.886 6.14 17.903 14.323 24.038l23.526 20.459c-2.726 18.415-2.726 36.83 0 55.241l-23.526 20.463c-8.183 6.135-12.958 14.148-14.323 24.038s0.683 18.923 6.14 27.11l9.203 16.367c4.774 7.501 11.597 13.129 20.463 16.879s17.728 3.921 26.594 0.512l30.69-9.207c7.501 5.457 15.006 10.227 22.507 14.319s15.684 7.846 24.55 11.255l6.14 30.69c2.044 9.545 6.818 17.557 14.319 24.038 7.505 6.477 16.367 9.719 26.598 9.719h16.367c10.231 0 19.098-3.243 26.598-9.719 7.501-6.481 12.275-14.835 14.323-25.062l6.135-29.666c8.866-3.409 17.22-7.164 25.062-11.255 7.846-4.092 15.177-8.862 21.995-14.319l30.69 9.207c9.549 3.409 18.756 3.238 27.622-0.512 8.862-3.75 15.684-9.378 20.459-16.879l9.207-15.347c4.77-8.866 6.477-18.24 5.111-28.13-1.361-9.89-6.135-17.903-14.319-24.038l-23.531-20.463c3.409-18.411 3.409-36.826 0-55.241l23.531-20.459c8.183-6.135 12.958-14.153 14.319-24.038 1.365-9.89-0.341-18.927-5.111-27.11l-10.231-16.367c-4.774-7.501-11.422-13.129-19.947-16.879s-17.562-3.921-27.11-0.512l-30.69 9.207c-6.818-5.457-14.148-10.231-21.995-14.323-7.842-4.092-16.196-7.842-25.062-11.251l-6.135-30.69c-2.048-10.231-6.822-18.415-14.323-24.55-7.501-6.14-16.367-9.207-26.598-9.207h-16.367c-10.231 0-19.093 3.238-26.598 9.719-7.501 6.477-12.275 14.831-14.319 25.062l-6.14 29.666c-8.866 3.409-17.050 7.159-24.55 11.251s-15.006 8.866-22.507 14.323zM742.69 149.803c20.459-0.683 38.532 5.453 54.217 18.411 15.689 12.958 25.574 29.495 29.67 49.617 4.092 20.117 1.361 39.215-8.188 57.284-9.545 18.074-23.697 31.031-42.453 38.874-18.752 7.842-37.85 8.866-57.284 3.068-19.439-5.794-34.953-17.216-46.545-34.266-11.597-17.050-16.367-35.806-14.323-56.265 2.048-20.459 10.231-37.85 24.55-52.173 8.183-8.183 17.562-14.494 28.134-18.927 10.569-4.433 21.312-6.306 32.222-5.623z" />
<glyph unicode="&#xe931;" glyph-name="close-circe" d="M511.851-21.333c-61.641-0.115-122.692 11.955-179.651 35.511s-108.701 58.133-152.254 101.751c-183.038 183.036-183.038 480.841 0 663.879 43.487 43.732 95.218 78.404 152.196 102.010 56.976 23.606 118.068 35.676 179.743 35.513 125.393 0 243.277-48.82 331.904-137.523 88.666-88.666 137.523-206.546 137.523-331.941 0-125.393-48.823-243.273-137.523-331.938-43.563-43.618-95.309-78.195-152.273-101.751s-118.025-35.622-179.665-35.511zM511.885 842.224c-51.806 0.147-103.13-9.987-150.993-29.816s-91.318-48.958-127.844-85.699c-74.47-74.471-115.479-173.5-115.479-278.84s41.009-204.331 115.479-278.839c153.746-153.745 403.932-153.783 557.643 0 74.466 74.47 115.516 173.5 115.516 278.839s-41.011 204.333-115.516 278.84c-36.531 36.731-79.979 65.852-127.834 85.681-47.859 19.828-99.17 29.969-150.972 29.835zM352.537 251.025c-7.434-0.017-14.707 2.176-20.893 6.298-6.185 4.126-11.008 9.993-13.851 16.862-2.846 6.869-3.584 14.426-2.127 21.717 1.459 7.287 5.052 13.982 10.321 19.226l318.647 318.646c3.486 3.486 7.625 6.252 12.181 8.14 4.553 1.887 9.438 2.857 14.366 2.857 4.932 0 9.818-0.97 14.37-2.857 4.557-1.889 8.695-4.654 12.181-8.14s6.255-7.625 8.141-12.182c1.886-4.556 2.859-9.438 2.859-14.368s-0.973-9.814-2.859-14.371c-1.886-4.554-4.655-8.693-8.141-12.18l-318.645-318.649c-3.478-3.499-7.615-6.272-12.173-8.162-4.556-1.886-9.444-2.854-14.377-2.837zM671.194 251.025c-4.932-0.009-9.813 0.964-14.37 2.85-4.561 1.886-8.695 4.659-12.177 8.149l-318.649 318.649c-3.486 3.486-6.252 7.625-8.138 12.18-1.887 4.556-2.859 9.44-2.859 14.371s0.972 9.812 2.859 14.368c1.887 4.556 4.652 8.695 8.138 12.182 3.488 3.486 7.628 6.252 12.182 8.14 4.556 1.887 9.44 2.857 14.371 2.857s9.812-0.97 14.368-2.857c4.556-1.889 8.695-4.654 12.182-8.14l318.645-318.646c5.269-5.244 8.862-11.938 10.321-19.226 1.459-7.292 0.717-14.848-2.125-21.717-2.85-6.869-7.667-12.736-13.854-16.862-6.187-4.122-13.457-6.315-20.894-6.298z" />
<glyph unicode="&#xe932;" glyph-name="unlock" d="M268.186 21.333c-22.349 0-41.481 7.957-57.397 23.872s-23.873 35.051-23.873 57.399v406.349c0 22.349 7.958 41.48 23.873 57.396s35.048 23.873 57.397 23.873h365.712v81.27c0 33.862-11.849 62.645-35.554 86.349-23.701 23.704-52.484 35.556-86.349 35.556-28.446 0-53.333-8.635-74.667-25.905s-35.724-38.772-43.174-64.508c-2.709-9.481-8.296-17.1-16.762-22.857s-17.778-8.635-27.937-8.635c-11.513 0-21.164 3.725-28.952 11.174s-10.667 16.254-8.635 26.413c9.481 46.73 32.847 86.010 70.095 117.841s80.593 47.746 130.031 47.746c56.213 0 104.128-19.81 143.748-59.429 39.616-39.619 59.426-87.534 59.426-143.746v-81.27h40.636c22.349 0 41.481-7.957 57.395-23.873s23.876-35.047 23.876-57.396v-406.349c0-22.349-7.962-41.485-23.876-57.399s-35.046-23.872-57.395-23.872h-487.619zM268.186 102.605h487.619v406.349h-487.619v-406.349zM511.996 224.508c22.349 0 41.481 7.957 57.395 23.872 15.919 15.915 23.876 35.051 23.876 57.399s-7.957 41.481-23.876 57.395c-15.915 15.915-35.046 23.872-57.395 23.872s-41.481-7.957-57.395-23.872c-15.915-15.915-23.876-35.046-23.876-57.395s7.962-41.485 23.876-57.399c15.915-15.915 35.046-23.872 57.395-23.872z" />
<glyph unicode="&#xe933;" glyph-name="user" d="M510.835 896c248.461 0 449.165-200.704 449.165-446.835 0-248.461-200.704-449.165-449.165-449.165-246.131 0-446.835 200.704-446.835 449.165 0 246.131 200.704 446.835 446.835 446.835zM510.835 836.237c-212.71 0-387.072-174.362-387.072-387.072 0-215.040 174.362-387.072 387.072-387.072 215.040 0 387.072 172.032 387.072 387.072 0 212.71-172.032 387.072-387.072 387.072zM632.7 358.409c74.010 0 138.522-52.595 152.858-121.856-64.512-81.267-162.445-133.773-274.714-133.773-109.94 0-210.292 52.506-272.385 133.773 14.336 69.261 76.429 121.856 150.528 121.856h243.713zM510.844 700.052c83.149 0 150.528-67.379 150.528-150.528s-67.379-150.527-150.528-150.527-150.529 67.379-150.529 150.527c0 83.149 67.38 150.528 150.529 150.528z" />
<glyph unicode="&#xe934;" glyph-name="verify" d="M461.598 419.2l-67.198 59.733c-9.6 8.533-20.8 12.8-33.6 12.8s-24-4.267-33.6-12.8c-9.6-8.533-14.4-18.667-14.4-30.4s4.8-21.867 14.4-30.4l100.798-90.667c9.6-8.533 20.8-12.8 33.6-12.8s24 4.267 33.6 12.8l204.002 181.333c9.6 8.533 14.4 18.667 14.4 30.4s-4.8 21.867-14.4 30.4c-9.6 8.533-21.001 12.8-34.202 12.8-13.197 0-24.597-4.267-34.197-12.8l-169.203-150.4zM512 26.667c-5.602 0-10.799 0.354-15.599 1.067s-9.6 1.779-14.4 3.2c-108.001 32-194.001 91.2-258.001 177.6s-96 179.379-96 278.933v201.6c0 17.778 5.8 33.778 17.4 48s26.6 24.533 45 30.933l288 96c11.2 3.555 22.4 5.333 33.6 5.333s22.4-1.778 33.6-5.333l288-96c18.402-6.4 33.399-16.711 45.001-30.933s17.399-30.222 17.399-48v-201.6c0-99.554-32-192.533-96-278.933s-149.999-145.6-258.001-177.6c-4.8-1.421-9.6-2.487-14.4-3.2s-10.001-1.067-15.599-1.067zM512 112c83.2 23.467 152 70.4 206.4 140.8s81.6 148.621 81.6 234.667v201.6l-288 96-288-96v-201.6c0-86.046 27.2-164.267 81.6-234.667s123.2-117.333 206.4-140.8z" />
<glyph unicode="&#xe935;" glyph-name="arrow-back" d="M641.762 349.175c12.506-12.489 32.768-12.476 45.257 0.030l146.193 146.402c12.484 12.501 12.476 32.747-0.013 45.239l-146.266 146.264c-12.497 12.497-32.759 12.497-45.257 0s-12.497-32.758 0-45.255l123.652-123.651-123.597-123.776c-12.489-12.506-12.476-32.768 0.030-45.252zM190.685 504.179c-32.501-32.499-45.944-78.66-45.944-132.373 0-53.709 13.443-99.874 45.944-132.373s78.651-45.931 132.342-45.909c0.005 0-0.005 0 0 0h243.808c17.673 0 32 14.327 32 32s-14.327 32-32 32h-243.808c-43.827-0.021-70.829 10.906-87.087 27.166-16.261 16.26-27.199 43.26-27.199 87.117s10.938 70.861 27.199 87.121c16.259 16.256 43.247 27.187 87.073 27.166h487.632c17.673 0 32 14.327 32 32s-14.327 32.001-32 32.001h-487.605c0.005 0-0.005 0 0 0-53.691 0.021-99.855-13.412-132.355-45.914z" />
<glyph unicode="&#xe936;" glyph-name="crypto-mb" d="M306.294 474.044c0-23.343 101.654-42.714 227.039-42.714s227.038 19.132 226.846 42.714c0 20.1-74.048 36.954-173.67 41.459v-68.433c-17.045-0.777-34.965-1.212-53.274-1.212-18.304 0-36.126 0.435-53.274 1.212v68.433c-99.618-4.506-173.667-21.359-173.667-41.459zM533.333-21.333c259.204 0 469.333 210.129 469.333 469.333 0 259.206-210.129 469.333-469.333 469.333-259.206 0-469.333-210.128-469.333-469.333 0-259.204 210.128-469.333 469.333-469.333zM586.607 587.129v-60.584c115.891-5.572 202.726-28.77 202.726-56.666s-86.933-51.14-202.726-56.661v-199.966h-106.547v199.966c-115.892 5.713-202.726 28.813-202.726 56.661s86.932 51.093 202.726 56.666v60.584h-138.218v95.6h382.595v-95.6h-137.83z" />
<glyph unicode="&#xe937;" glyph-name="deposit-ewallet-mb" d="M643.665 446.327c0-38.332 31.185-69.517 69.517-69.517h225.468v139.034h-225.468c-38.327-0.004-69.517-31.185-69.517-69.517zM751.198 444.284c0-15.475-12.544-28.023-28.023-28.023-15.475 0-28.023 12.548-28.023 28.023 0 15.479 12.548 28.023 28.023 28.023 15.479 0 28.023-12.548 28.023-28.023zM299.871 469.41c0.219 0.849 0.444 1.702 0.677 2.56 2.222 8.333 5.417 16.043 9.583 23.125s9.514 12.779 16.042 17.084c6.528 4.305 14.583 6.319 24.166 6.042 8.334-0.277 15-2.432 20-6.46s8.403-9.374 10.208-16.038c1.806-6.528 2.153-13.611 1.041-21.252l-1.041-5.205-80.677 0.145zM589.85 446.345c0-68.015 55.334-123.354 123.349-123.354h225.468v-90.586c0-63.543-51.695-115.238-115.238-115.238h-622.859c-63.541 0-115.236 51.695-115.236 115.238v431.223c0 63.541 51.695 115.236 115.236 115.236h622.859c63.543 0 115.238-51.695 115.238-115.236v-93.935h-225.468c-68.015 0-123.349-55.334-123.349-123.348zM289.923 339.887c12.361-5.555 26.25-8.469 41.667-8.751 10.972-0.137 22.014 1.25 33.125 4.169 11.111 2.778 21.458 7.151 31.042 13.124 9.722 6.11 17.708 13.888 23.958 23.334l-26.25 31.667c-7.5-7.778-15.972-14.029-25.417-18.752-9.306-4.582-19.514-6.733-30.625-6.455-8.75 0.277-16.042 2.219-21.875 5.833-5.694 3.61-10.208 8.333-13.542 14.165-3.194 5.833-5.347 12.361-6.458 19.584-0.587 3.887-0.922 7.778-1.005 11.665h138.712l3.337 25.003c1.527 14.306 1.041 27.985-1.459 41.041-2.5 13.193-7.155 24.93-13.959 35.209-6.806 10.277-15.764 18.471-26.875 24.582s-24.514 9.306-40.209 9.583c-16.806 0.417-32.083-2.5-45.833-8.75-13.611-6.111-25.417-14.653-35.416-25.625-10-10.833-17.986-23.334-23.959-37.5s-9.792-29.099-11.458-44.791l-0.833-8.542c-1.111-15.002 0.278-29.026 4.166-42.082s9.931-24.516 18.125-34.377c8.333-9.86 18.68-17.638 31.042-23.334z" />
<glyph unicode="&#xe938;" glyph-name="deposit-phone-mb" d="M938.667 704v-512c0-23.467-8.354-43.554-25.067-60.267s-36.8-25.067-60.267-25.067h-682.667c-23.467 0-43.555 8.354-60.267 25.067s-25.067 36.8-25.067 60.267v512c0 23.467 8.355 43.555 25.067 60.267s36.8 25.067 60.267 25.067h682.667c23.467 0 43.554-8.355 60.267-25.067s25.067-36.8 25.067-60.267zM170.667 618.667h682.667v85.333h-682.667v-85.333zM170.667 448v-256h682.667v256h-682.667z" />
<glyph unicode="&#xe939;" glyph-name="deposit-qr-pay-mb" d="M128 533.333v256c0 12.089 4.089 22.222 12.267 30.4s18.311 12.267 30.4 12.267h256c12.087 0 22.221-4.089 30.4-12.267s12.267-18.311 12.267-30.4v-256c0-12.087-4.087-22.221-12.267-30.4s-18.313-12.267-30.4-12.267h-256c-12.089 0-22.222 4.087-30.4 12.267s-12.267 18.313-12.267 30.4zM213.333 576h170.667v170.667h-170.667v-170.667zM128 106.667v256c0 12.087 4.089 22.221 12.267 30.4s18.311 12.267 30.4 12.267h256c12.087 0 22.221-4.087 30.4-12.267s12.267-18.313 12.267-30.4v-256c0-12.087-4.087-22.221-12.267-30.4s-18.313-12.267-30.4-12.267h-256c-12.089 0-22.222 4.087-30.4 12.267s-12.267 18.313-12.267 30.4zM213.333 149.333h170.667v170.667h-170.667v-170.667zM554.667 533.333v256c0 12.089 4.087 22.222 12.267 30.4s18.313 12.267 30.4 12.267h256c12.087 0 22.221-4.089 30.4-12.267s12.267-18.311 12.267-30.4v-256c0-12.087-4.087-22.221-12.267-30.4s-18.313-12.267-30.4-12.267h-256c-12.087 0-22.221 4.087-30.4 12.267s-12.267 18.313-12.267 30.4zM640 576h170.667v170.667h-170.667v-170.667zM810.667 64v85.333h85.333v-85.333h-85.333zM554.667 320v85.333h85.333v-85.333h-85.333zM640 234.667v85.333h85.333v-85.333h-85.333zM554.667 149.333v85.333h85.333v-85.333h-85.333zM640 64v85.333h85.333v-85.333h-85.333zM725.333 149.333v85.333h85.333v-85.333h-85.333zM725.333 320v85.333h85.333v-85.333h-85.333zM810.667 234.667v85.333h85.333v-85.333h-85.333z" />
<glyph unicode="&#xe93a;" glyph-name="bank-card" d="M85.348 606.986c0 69.264-6.465 110.969 26.644 143.901s103.228 31.833 149.926 31.731h262.294c13.686 0 26.813-5.437 36.493-15.115 9.677-9.678 15.114-22.804 15.114-36.491v-124.964c0-13.686-5.437-26.813-15.114-36.49-9.68-9.68-22.806-15.117-36.493-15.117h-387.258c-6.844 0.045-13.611 1.443-19.913 4.109-6.302 2.669-12.015 6.557-16.811 11.44-4.795 4.88-8.579 10.662-11.133 17.011-2.554 6.352-3.828 13.142-3.749 19.984zM938.339 438.861v-212.819c0-46.944 10.221-112.848-22.973-146.042-33.19-33.194-107.082-30.954-154.022-30.954h-499.427c-46.826 0.010-116.806-2.157-149.917 30.954s-26.641 98.79-26.652 145.616v213.245c0 13.69 5.437 26.816 15.115 36.493s22.804 15.114 36.491 15.114h749.78c13.686 0 26.813-5.437 36.49-15.114 9.68-9.677 15.117-22.803 15.117-36.493zM373.232 223.907c-0.054 8.467-3.443 16.57-9.43 22.557s-14.090 9.376-22.557 9.43h-85.299c-8.484 0-16.62-3.37-22.618-9.366-5.999-6-9.369-14.138-9.369-22.621s3.37-16.618 9.369-22.618c5.999-5.997 14.135-9.37 22.618-9.37h85.299c8.467 0.058 16.57 3.446 22.557 9.43 5.987 5.987 9.376 14.093 9.43 22.557zM650.454 223.907c-0.058 8.467-3.443 16.57-9.43 22.557s-14.090 9.376-22.557 9.43h-170.598c-8.483 0-16.621-3.37-22.618-9.366-6-6-9.37-14.138-9.37-22.621s3.37-16.618 9.37-22.618c5.997-5.997 14.134-9.37 22.618-9.37h170.598c8.467 0.058 16.57 3.446 22.557 9.43 5.987 5.987 9.373 14.093 9.43 22.557zM938.339 766.411v-125.39c1.075-11.639-0.422-23.373-4.394-34.365s-10.314-20.976-18.579-29.242c-8.262-8.266-18.246-14.608-29.242-18.579-10.992-3.971-22.726-5.469-34.365-4.394h-125.389c-11.638-1.075-23.373 0.422-34.365 4.394-10.995 3.971-20.979 10.314-29.245 18.579-8.262 8.266-14.608 18.25-18.576 29.242-3.971 10.992-5.472 22.726-4.394 34.365v125.39c-1.078 11.639 0.422 23.372 4.394 34.365 3.968 10.994 10.314 20.978 18.576 29.243 8.266 8.265 18.25 14.608 29.245 18.578 10.992 3.97 22.726 5.47 34.365 4.393h125.389c11.638 1.077 23.373-0.423 34.365-4.393 10.995-3.97 20.979-10.313 29.242-18.578 8.266-8.265 14.608-18.249 18.579-29.243s5.469-22.726 4.394-34.365zM840.499 687.893c-3.155 1.109-6.352 2.388-9.766 3.966-3.411 1.578-6.566 3.284-9.68 5.075-2.541 1.511-5.002 3.148-7.379 4.905-1.962 1.28-4.266 3.114-6.525 4.948-0.71 0.517-1.366 1.103-1.962 1.748-4.304 3.659-8.301 7.667-11.942 11.985-0.64 0.609-1.197 1.297-1.664 2.047-1.718 2.031-3.328 4.152-4.819 6.355-1.622 2.171-3.12 4.435-4.477 6.781-1.792 3.071-3.498 6.312-5.034 9.511s-2.899 6.781-4.010 9.937l-72.502-72.504c-1.619-1.808-2.726-4.017-3.2-6.397l-6.269-44.227c-0.65-3.594-0.451-7.286 0.576-10.787 1.030-3.504 2.861-6.717 5.35-9.386 4.298-4.115 10.048-6.355 15.994-6.227 1.427-0.013 2.854 0.086 4.266 0.298l44.272 6.269c2.387 0.448 4.605 1.558 6.397 3.2l72.374 72.504zM887.158 750.886c-0.406 6.511-2.128 12.871-5.059 18.699-2.934 5.827-7.014 11-12 15.208-3.875 5.28-8.938 9.574-14.781 12.533s-12.298 4.502-18.848 4.502c-6.55 0-13.008-1.542-18.848-4.502-5.843-2.96-10.906-7.253-14.781-12.533l-13.776-13.904c-0.595-0.588-1.021-1.329-1.222-2.142s-0.179-1.665 0.070-2.465c4.406-15.191 12.582-29.022 23.766-40.207 11.187-11.185 25.018-19.361 40.208-23.767 0.483-0.044 0.966-0.044 1.45 0 1.251 0.011 2.448 0.517 3.328 1.408l13.859 13.989c4.845 4.142 8.813 9.212 11.67 14.91 2.854 5.699 4.544 11.91 4.963 18.271z" />
<glyph unicode="&#xe93b;" glyph-name="contact" d="M1007.53 410.714c1.581-37.805-11.898-74.694-37.478-102.576-25.584-27.882-61.181-44.474-98.982-46.144-2.211-0.102-4.419-0.154-6.621-0.154-10.045 0.006-20.058 1.094-29.869 3.242-29.114-44.947-67.286-83.328-112.080-112.678-44.794-29.354-95.219-49.030-148.054-57.779-6.25-18.362-18.717-33.958-35.248-44.099-16.528-10.144-36.083-14.189-55.28-11.443s-36.832 12.112-49.856 26.48c-13.024 14.371-20.618 32.838-21.472 52.214-0.851 19.373 5.094 38.435 16.806 53.894 11.712 15.456 28.458 26.333 47.341 30.755 18.883 4.419 38.717 2.102 56.074-6.55 17.354-8.65 31.142-23.094 38.979-40.835 74.384 13.757 141.581 53.181 189.882 111.398 48.301 58.214 74.64 131.536 74.429 207.181 0 178.709-145.392 324.1-324.099 324.1-178.71 0-324.101-145.39-324.101-324.1-0.010-55.261 14.113-109.606 41.026-157.869 0.912-1.594 1.597-3.306 2.034-5.088 2.6-7.226 2.322-15.174-0.776-22.198-3.098-7.027-8.778-12.592-15.866-15.549-17.355-7.302-35.995-11.062-54.824-11.059-2.216 0-4.437 0.051-6.662 0.154-37.786 1.69-73.361 18.291-98.923 46.173-25.562 27.878-39.026 64.755-37.439 102.547 0.638 15.069 0.282 28.515-0.066 41.517-0.324 12.243-0.662 24.902-0.106 38.112 1.659 36.899 17.532 71.725 44.293 97.184 26.761 25.456 62.335 39.574 99.271 39.389 59.312 135.706 194.818 230.788 352.14 230.788 157.318 0 292.826-95.082 352.138-230.788 36.941 0.211 72.525-13.894 99.293-39.354 26.765-25.459 42.63-60.294 44.269-97.197 0.557-13.229 0.221-25.888-0.106-38.131-0.346-13.002-0.704-26.454-0.064-41.536zM763.61 473.619c-0.016-38.547-8.883-76.576-25.92-111.152-17.037-34.579-41.789-64.781-72.342-88.282-30.557-23.498-66.102-39.664-103.894-47.254-37.792-7.587-76.822-6.394-114.083 3.488l-101.84-58.816c-5.139-2.966-11.043-4.342-16.963-3.955-5.923 0.387-11.596 2.522-16.303 6.134s-8.238 8.541-10.146 14.16c-1.907 5.619-2.105 11.677-0.569 17.408l26.029 97.098c-43.105 46.589-67.088 107.699-67.179 171.171 0 138.774 112.862 251.668 251.602 251.668 138.736 0 251.61-112.893 251.61-251.668zM442.048 473.619c0 7.955-3.162 15.587-8.787 21.213s-13.254 8.787-21.213 8.787h-0.048c-5.933-0.013-11.728-1.779-16.653-5.085-4.928-3.302-8.762-7.99-11.024-13.475-2.262-5.482-2.848-11.51-1.686-17.328 1.165-5.814 4.026-11.155 8.224-15.344 4.198-4.192 9.542-7.043 15.36-8.195 5.821-1.155 11.85-0.557 17.328 1.715s10.16 6.118 13.453 11.050c3.296 4.934 5.053 10.73 5.053 16.662h-0.006zM542.003 473.619c0 0.982-0.054 1.962-0.16 2.941-0.093 0.979-0.24 1.955-0.435 2.918-0.179 0.96-0.422 1.91-0.723 2.842-0.278 0.938-0.618 1.859-0.979 2.778-0.358 0.922-0.8 1.782-1.258 2.64-0.458 0.867-0.96 1.706-1.501 2.522-0.547 0.822-1.136 1.616-1.763 2.381-0.614 0.765-1.277 1.491-1.978 2.179-0.678 0.701-1.421 1.36-2.179 2-0.762 0.598-1.562 1.2-2.384 1.741-0.813 0.541-1.651 1.043-2.515 1.498-0.864 0.461-1.76 0.88-2.662 1.261-0.902 0.378-1.824 0.704-2.758 0.979-1.872 0.602-3.805 0.992-5.76 1.162-2.938 0.282-5.904 0.141-8.8-0.419-0.966-0.198-1.92-0.445-2.858-0.742-0.938-0.275-1.859-0.602-2.762-0.979-0.899-0.381-1.798-0.8-2.659-1.261-0.861-0.458-1.699-0.96-2.522-1.498-0.822-0.541-1.619-1.142-2.358-1.741-0.781-0.64-1.501-1.299-2.202-2-0.701-0.688-1.363-1.418-1.981-2.179-0.621-0.765-1.2-1.558-1.738-2.381-0.55-0.813-1.056-1.654-1.52-2.522-0.461-0.854-0.877-1.738-1.242-2.64-0.381-0.909-0.714-1.837-1.002-2.778-0.278-0.922-0.518-1.882-0.717-2.842-0.198-0.963-0.346-1.939-0.442-2.918-0.099-0.982-0.141-1.962-0.141-2.941s0.042-1.981 0.141-2.96c0.099-0.973 0.246-1.942 0.442-2.899 0.198-0.96 0.438-1.92 0.717-2.861 0.288-0.938 0.621-1.859 1.002-2.762 0.365-0.909 0.781-1.795 1.242-2.659 0.458-0.861 0.979-1.699 1.52-2.518 0.538-0.816 1.12-1.603 1.738-2.362 0.624-0.765 1.286-1.501 1.981-2.198 0.701-0.682 1.421-1.36 2.202-1.981 0.752-0.624 1.539-1.206 2.358-1.741 0.822-0.541 1.661-1.059 2.522-1.52 1.738-0.906 3.549-1.654 5.421-2.24 0.938-0.278 1.898-0.518 2.858-0.72 1.926-0.394 3.891-0.589 5.859-0.579 7.946 0.019 15.565 3.174 21.2 8.781 1.382 1.402 2.634 2.928 3.741 4.56 0.541 0.819 1.040 1.658 1.501 2.518 0.458 0.861 0.88 1.76 1.258 2.659 0.381 0.902 0.701 1.84 0.979 2.762 0.298 0.938 0.541 1.891 0.723 2.861 0.195 0.957 0.339 1.926 0.435 2.899 0.102 0.986 0.154 1.974 0.157 2.963l0.003-0.003zM642.003 473.619c0 7.955-3.158 15.587-8.784 21.213-5.629 5.626-13.258 8.787-21.216 8.787h-0.058c-5.93-0.013-11.725-1.782-16.65-5.085-4.928-3.302-8.762-7.994-11.024-13.475s-2.848-11.514-1.683-17.328c1.165-5.818 4.026-11.155 8.224-15.347 4.198-4.189 9.542-7.040 15.36-8.192 5.818-1.155 11.846-0.557 17.325 1.715s10.16 6.118 13.456 11.050c3.293 4.934 5.050 10.73 5.050 16.662z" />
<glyph unicode="&#xe93c;" glyph-name="withdraw" d="M667.87 544.005c-85.547-38.358-145.195-124.246-145.195-224.001 0-61.099 22.4-117.035 59.392-160h-411.39c-31.104 0-60.971 12.373-82.987 34.347-21.973 22.016-34.347 51.883-34.347 82.987v266.668h614.526zM341.386 352.004h-128.043c-17.664 0-32-14.336-32-32s14.336-32 32-32h128.043c17.664 0 32 14.336 32 32s-14.336 32-32 32zM53.344 608.005h831.998v53.333c0 31.104-12.373 60.971-34.347 82.987-22.016 21.973-51.883 34.347-82.987 34.347-147.755 0-449.577 0-597.332 0-31.104 0-60.971-12.373-82.987-34.347-21.973-22.016-34.347-51.883-34.347-82.987v-53.333zM768.009 522.671c111.872 0 202.667-90.795 202.667-202.667s-90.795-202.667-202.667-202.667c-111.872 0-202.667 90.795-202.667 202.667s90.795 202.667 202.667 202.667zM682.675 288.004h170.667c17.664 0 32 14.336 32 32s-14.336 32-32 32h-170.667c-17.664 0-32-14.336-32-32s14.336-32 32-32z" />
<glyph unicode="&#xe93d;" glyph-name="password" d="M738 526v104c0 130-104 234-234 234s-234-104-234-234v-104c-44.2 0-78-33.798-78-78v-338c0-41.6 33.8-78 78-78h468c44.202 0 78 36.4 78 78v338c0 44.202-33.798 78-78 78zM322 630c0 101.4 80.598 182 182 182 101.398 0 182-80.6 182-182v-104h-364v104zM530 245.2v-57.2c0-15.6-10.4-26-26-26s-26 10.4-26 26v57.2c-31.2 10.4-52 39.002-52 72.8 0 44.202 33.798 78 78 78s78-33.798 78-78c0-33.798-20.8-62.4-52-72.8z" />
<glyph unicode="&#xe93e;" glyph-name="promotion" d="M926.694 382.835l-32.733 50.301c-5.882 9.024-5.882 20.694 0 29.741l32.749 50.32c29.811 45.898 9.638 107.376-41.235 126.818l-56.032 21.467c-10.070 3.857-16.944 13.307-17.498 24.066l-3.085 59.923c-2.794 54.486-55.085 92.548-107.914 78.412l-57.933-15.584c-10.378-2.789-21.536 0.8-28.294 9.186l-37.731 46.672c-34.342 42.498-99.149 42.428-133.386-0.030l-37.734-46.646c-6.758-8.388-17.898-11.995-28.272-9.186l-57.935 15.573c-52.685 14.191-105.132-23.845-107.93-78.401l-3.084-59.933c-0.551-10.757-7.406-20.2-17.477-24.055l-56.031-21.45c-50.937-19.507-71.046-81.011-41.219-126.873l32.707-50.262c5.884-9.043 5.884-20.733 0.019-29.757l-32.726-50.304c-29.813-45.757-9.749-107.376 41.219-126.854l56.031-21.456c10.071-3.862 16.926-13.306 17.477-24.064l3.084-59.936c2.793-54.477 55.128-92.56 107.93-78.4l57.935 15.594c10.358 2.781 21.475-0.8 28.291-9.216l37.715-46.646c34.275-42.413 98.979-42.522 133.405-0.019l37.715 46.666c6.8 8.413 17.898 11.978 28.275 9.216l57.99-15.613c52.589-14.096 105.075 23.789 107.872 78.422l3.085 59.914c0.55 10.774 7.424 20.221 17.498 24.086l56.032 21.437c50.918 19.498 71.046 81.011 41.219 126.874zM392.026 605.59c32.253 0 58.486-26.237 58.486-58.486 0-32.253-26.234-58.486-58.486-58.486-32.25 0-58.486 26.234-58.486 58.486 0 32.25 26.237 58.486 58.486 58.486zM606.48 274.163c-32.253 0-58.486 26.234-58.486 58.486s26.234 58.486 58.486 58.486c32.25 0 58.486-26.237 58.486-58.486 0-32.253-26.237-58.486-58.486-58.486zM656.4 555.667l-272.941-272.938c-11.424-11.424-29.926-11.424-41.35 0s-11.424 29.93 0 41.354l272.938 272.938c11.424 11.421 29.93 11.421 41.354 0s11.424-29.93 0-41.354z" />
<glyph unicode="&#xe93f;" glyph-name="user-account" d="M597.344 405.328h213.334v85.334h-213.334v-85.334zM597.344 533.328h213.334v85.334h-213.334v-85.334zM213.344 277.328h341.335v23.466c0 32-15.645 57.424-46.934 76.269s-72.534 28.266-123.734 28.266c-51.2 0-92.444-9.421-123.732-28.266s-46.933-44.269-46.933-76.269v-23.466zM384.010 447.994c23.469 0 43.555 8.355 60.269 25.069 16.71 16.71 25.066 36.8 25.066 60.266s-8.355 43.555-25.066 60.266c-16.714 16.714-36.8 25.069-60.269 25.069-23.466 0-43.555-8.355-60.266-25.069-16.711-16.71-25.067-36.8-25.067-60.266s8.356-43.555 25.067-60.266c16.71-16.714 36.8-25.069 60.266-25.069zM170.677 106.662c-23.467 0-43.556 8.355-60.267 25.066s-25.067 36.8-25.067 60.266v512.001c0 23.467 8.356 43.556 25.067 60.267s36.8 25.067 60.267 25.067h682.667c23.466 0 43.555-8.356 60.266-25.067s25.069-36.8 25.069-60.267v-512.001c0-23.466-8.358-43.555-25.069-60.266s-36.8-25.066-60.266-25.066h-682.667z" />
<glyph unicode="&#xe940;" glyph-name="all-leagues" d="M994.107 872.692c-20.48 21.763-49.54 34.309-79.499 34.309h-95.371c0.388 17.155 0.644 34.819 0.644 52.999h-615.118c0-18.177 0.255-35.844 0.64-52.999h-96.012c-29.956 0-59.015-12.547-79.497-34.309-20.74-21.892-31.491-51.846-29.701-82.187 17.155-285.988 164.758-465.464 398.769-492.093l-45.318-157.714c-53.895 0-97.547-43.652-97.547-97.543v-107.279h512.576v107.279c0 53.892-43.655 97.543-97.548 97.543l-45.318 157.714c233.498 26.883 380.976 206.233 398.003 492.093 1.785 30.211-8.96 60.167-29.703 82.187zM102.478 796.65c-0.127 2.815 1.025 4.735 2.048 5.761 1.92 2.048 4.225 2.048 4.865 2.048h100.877c15.234-201.37 59.655-315.559 102.798-380.079-164.245 68.873-203.42 252.831-210.589 372.27zM711.577 424.765c43.14 64.648 87.436 178.709 102.664 379.821h100.498c0.768 0 2.94 0 4.864-2.048 1.024-1.025 2.172-2.945 2.048-5.761-7.3-119.439-46.343-302.884-210.074-372.013z" />
<glyph unicode="&#xe941;" glyph-name="deposit" d="M768.009 522.671c111.872 0 202.667-90.795 202.667-202.667s-90.795-202.667-202.667-202.667c-111.872 0-202.667 90.795-202.667 202.667s90.795 202.667 202.667 202.667zM800.009 352.004v53.333c0 17.664-14.336 32-32 32s-32-14.336-32-32v-53.333h-53.333c-17.664 0-32-14.336-32-32s14.336-32 32-32h53.333v-53.333c0-17.664 14.336-32 32-32s32 14.336 32 32v53.333h53.333c17.664 0 32 14.336 32 32s-14.336 32-32 32h-53.333zM667.87 544.005c-85.547-38.358-145.195-124.246-145.195-224.001 0-61.099 22.4-117.035 59.392-160h-411.39c-31.104 0-60.971 12.373-82.987 34.347-21.973 22.016-34.347 51.883-34.347 82.987v266.668h614.526zM341.386 352.004h-128.043c-17.664 0-32-14.336-32-32s14.336-32 32-32h128.043c17.664 0 32 14.336 32 32s-14.336 32-32 32zM53.344 608.005h831.998v53.333c0 31.104-12.373 60.971-34.347 82.987-22.016 21.973-51.883 34.347-82.987 34.347-147.755 0-449.577 0-597.332 0-31.104 0-60.971-12.373-82.987-34.347-21.973-22.016-34.347-51.883-34.347-82.987v-53.333z" />
<glyph unicode="&#xe942;" glyph-name="coin12" d="M530.261 771.15c-48.58 56.829-120.784 92.85-201.399 92.85-146.281 0-264.862-118.581-264.862-264.862 0-104.716 60.773-195.238 148.964-238.225-0.434 7.586-0.659 15.223-0.659 22.912 0 191.743 136.697 351.568 317.956 387.325zM581.423 408.713c5.022-0.081 8.973-0.081 11.866 0 2.889 0.081 7.142 0.26 12.757 0.516s10.291 0.721 14.033 1.404c3.742 0.683 8.119 1.617 13.133 2.803 5.013 1.19 9.143 2.765 12.373 4.719 3.23 1.95 6.387 4.25 9.446 6.891 3.063 2.637 5.359 5.914 6.886 9.826 1.523 3.913 2.287 8.247 2.287 13.013 0 5.615-1.058 10.59-3.187 14.925-2.121 4.339-4.715 7.915-7.778 10.718-3.059 2.803-7.134 5.188-12.241 7.142-5.103 1.958-9.779 3.358-14.033 4.207-4.25 0.853-9.481 1.536-15.693 2.044-6.208 0.512-11.14 0.721-14.797 0.64-3.657-0.085-8.247-0.166-13.777-0.256-5.525-0.090-8.883-0.128-10.074-0.128v-78.327c0.781 0 3.319-0.038 7.612-0.107l1.186-0.030zM669.065 354.509c-3.742 3.063-8.636 5.658-14.669 7.778-6.037 2.129-11.605 3.695-16.708 4.723-5.107 1.020-11.401 1.783-18.88 2.291-7.484 0.512-13.359 0.759-17.609 0.759s-9.737-0.077-16.452-0.247c-6.724-0.175-10.756-0.256-12.122-0.256v-86.238c1.357 0 4.506-0.043 9.438-0.124 4.932-0.077 9.015-0.128 12.254-0.128 3.234 0 7.744 0.128 13.521 0.38 5.781 0.256 10.756 0.593 14.925 1.020s9.011 1.148 14.549 2.167c5.517 1.020 10.24 2.21 14.153 3.575 3.913 1.357 7.953 3.14 12.113 5.359 4.164 2.21 7.531 4.762 10.082 7.646 2.547 2.893 4.629 6.302 6.251 10.21 1.617 3.913 2.428 8.243 2.428 13.018 0 6.118-1.276 11.567-3.831 16.329-2.556 4.766-5.696 8.67-9.442 11.738zM607.104 736.726c-16.909 0-33.54-1.189-49.805-3.487-171.314-24.204-303.087-171.409-303.087-349.397 0-13.35 0.747-26.526 2.193-39.501 19.633-176.303 169.16-313.391 350.698-313.391 194.901 0 352.892 157.99 352.892 352.892 0 194.898-157.99 352.884-352.892 352.884zM759.876 318.788c-1.19-12.083-3.951-22.711-8.282-31.893-4.348-9.182-9.826-16.759-16.461-22.711s-14.878-10.935-24.742-14.925c-9.865-4.002-20.198-6.933-31.002-8.806-10.799-1.877-23.168-3.149-37.124-3.823v-65.054h-39.292v64.034c-13.606 0-23.979 0.081-31.121 0.256v-64.29h-39.296v65.054c-3.063 0-7.659 0.038-13.781 0.128-6.127 0.081-10.795 0.119-14.033 0.119h-51.029l7.915 46.69h28.318c8.508 0 13.44 4.339 14.797 13.018v102.562h4.083c-1.020 0.166-2.381 0.256-4.083 0.256v73.225c-2.21 11.567-9.775 17.353-22.711 17.353h-28.318v41.847l54.093-0.26c10.884 0 19.132 0.090 24.751 0.26v64.29h39.292v-63.014c13.943 0.337 24.316 0.514 31.121 0.514v62.508h39.283v-64.294c13.44-1.186 25.344-3.098 35.716-5.734 10.368-2.633 19.985-6.46 28.83-11.477 8.853-5.013 15.859-11.652 21.056-19.9 5.188-8.252 8.29-17.98 9.318-29.201 3.063-30.963-8.081-52.902-33.425-65.826 19.9-4.766 34.782-13.521 44.651-26.278 9.865-12.757 13.696-30.959 11.469-54.596l0.009-0.030z" />
<glyph unicode="&#xe943;" glyph-name="transfer" d="M464 384v128c0.038 33.936 13.538 66.471 37.534 90.467s56.529 37.495 90.466 37.533h224v64c0 8.487-3.371 16.626-9.374 22.627-5.999 6.001-14.14 9.373-22.626 9.373h-480c-33.948 0-66.505-13.486-90.51-37.49s-37.49-56.562-37.49-90.51v-320c0-33.946 13.486-66.505 37.49-90.509s56.562-37.491 90.51-37.491h480c8.486 0 16.627 3.371 22.626 9.374 6.003 5.999 9.374 14.14 9.374 22.626v64h-224c-33.937 0.038-66.47 13.538-90.466 37.534s-37.495 56.529-37.534 90.466zM848 608h-256c-25.451-0.029-49.852-10.152-67.853-28.149-17.997-17.997-28.117-42.399-28.147-67.851v-128c0.030-25.451 10.15-49.852 28.147-67.853 18.001-17.997 42.402-28.117 67.853-28.147h256c8.486 0 16.627 3.371 22.626 9.374 6.003 5.999 9.374 14.14 9.374 22.626v256c0 8.487-3.371 16.626-9.374 22.627-5.999 6.001-14.14 9.373-22.626 9.373zM688 416c-6.327 0-12.514 1.877-17.779 5.393-5.261 3.516-9.361 8.512-11.785 14.362-2.423 5.845-3.055 12.279-1.822 18.487s4.284 11.908 8.759 16.384c4.476 4.476 10.176 7.526 16.384 8.759s12.642 0.602 18.487-1.822c5.85-2.423 10.846-6.524 14.362-11.785 3.516-5.265 5.393-11.452 5.393-17.779 0-8.486-3.371-16.627-9.374-22.626-5.999-6.003-14.14-9.374-22.626-9.374zM984.585 852.484l-80 96-49.169-40.972 36.262-43.514h-203.678v-64h203.678l-36.262-43.514 49.169-40.972 80 96c4.791 5.751 7.415 13 7.415 20.486s-2.624 14.735-7.415 20.486zM168.585 139.511l-49.168 40.973-80-96c-4.792-5.751-7.417-13.001-7.417-20.484 0-7.488 2.625-14.737 7.417-20.489l80-96 49.168 40.973-36.262 43.516h203.678v64h-203.678l36.262 43.511z" />
<glyph unicode="&#xe944;" glyph-name="warning" d="M511.994 179.807c13.816 0 25.397 4.667 34.743 14.014s14.019 20.926 14.019 34.743v195.049c0 13.815-4.673 25.397-14.019 34.743s-20.927 14.019-34.743 14.019c-13.816 0-25.397-4.673-34.743-14.019s-14.019-20.928-14.019-34.743v-195.049c0-13.817 4.673-25.395 14.019-34.743s20.927-14.014 34.743-14.014zM511.994 569.899c13.816 0 25.397 4.672 34.743 14.019s14.019 20.927 14.019 34.743c0 13.816-4.673 25.397-14.019 34.743s-20.927 14.019-34.743 14.019c-13.816 0-25.397-4.673-34.743-14.019s-14.019-20.927-14.019-34.743c0-13.816 4.673-25.397 14.019-34.743s20.927-14.019 34.743-14.019zM511.994-64.007c-67.454 0-130.845 12.8-190.171 38.4s-110.934 60.343-154.819 104.229c-43.886 43.886-78.629 95.495-104.228 154.821-25.6 59.327-38.4 122.717-38.4 190.171s12.8 130.844 38.4 190.171c25.6 59.327 60.343 110.933 104.228 154.819s95.492 78.629 154.819 104.229c59.327 25.6 122.718 38.4 190.171 38.4s130.845-12.8 190.171-38.4c59.325-25.6 110.934-60.343 154.82-104.229s78.629-95.492 104.229-154.819c25.6-59.328 38.4-122.718 38.4-190.171s-12.8-130.845-38.4-190.171c-25.6-59.325-60.343-110.935-104.229-154.821s-95.495-78.629-154.82-104.229c-59.327-25.6-122.718-38.4-190.171-38.4zM511.994 33.521c108.902 0 201.143 37.786 276.727 113.371 75.579 75.579 113.371 167.819 113.371 276.721s-37.793 201.143-113.371 276.724c-75.584 75.581-167.826 113.371-276.727 113.371s-201.143-37.791-276.724-113.371c-75.581-75.581-113.371-167.823-113.371-276.724s37.79-201.142 113.371-276.721c75.581-75.586 167.822-113.371 276.724-113.371z" />
<glyph unicode="&#xe945;" glyph-name="jackpot" horiz-adv-x="1088" d="M365.949 729.597c4.858 29.52 18.179 56.568 37.649 79.043-48.26-1.020-90.196-23.891-112.568-57.32 14.333-3.855 30.342-8.604 45.952-13.233 9.523-2.826 19.56-5.801 28.966-8.49zM543.836 506.547c-12.411 0-22.508-10.097-22.508-22.508v-22.508c0-12.411 10.097-22.508 22.508-22.508s22.508 10.097 22.508 22.508v22.508c0 12.411-10.097 22.508-22.508 22.508zM224.974 665.449c47.537-40.419 76.020-70.754 90.44-97.228 48.953-27.871 106.783-46.735 167.946-54.217 11.062 22.232 34.012 37.551 60.483 37.551 26.478 0 49.434-15.327 60.492-37.567 61.432 7.482 119.185 26.212 168.241 54.262 20.403 39.418 52.902 65.965 74.010 83.19 8.243 6.732 14.758 12.049 19.373 17.1 15.827 17.341 11.251 30.741 7.117 37.186-11.296 17.594-34.682 11.663-48.653 8.121-13.85-3.512-31.322-9.122-49.818-15.061-29.734-9.546-66.726-21.426-82.938-21.949-21.248-0.669-42.995 7.043-66.027 15.224-24.801 8.811-50.444 17.921-78.756 17.921-28.51 0-54.86-9.416-80.34-18.522-27.215-9.724-52.916-18.909-76.558-14.435-15.128 2.863-40.87 10.499-65.764 17.885-20.295 6.020-41.281 12.244-57.506 16.175-19.139 4.641-42.959 10.411-53.332-8.734-4.577-8.447-6.28-21.705 11.59-36.901zM887.763 438.36c-22.573 37.129-52.518 69.368-87.021 94.249-52.896-31.341-115.014-52.7-181.098-62.003 35.985-34.093 57.745-90.808 57.745-153.051 0-5.83-0.198-11.744-0.595-17.568-0.8-11.885-10.694-20.992-22.432-20.992-0.512 0-1.024 0.019-1.542 0.051-12.403 0.838-21.777 11.571-20.938 23.974 0.326 4.819 0.491 9.709 0.491 14.534 0 41.726-12.031 80.747-31.958 107.183-12.060-18.481-32.906-30.73-56.572-30.73-23.653 0-44.491 12.234-56.555 30.698-19.919-26.486-31.978-65.594-31.978-107.152 0-3.75 0.1-7.565 0.299-11.354 0.651-12.416-8.888-23.008-21.3-23.654-0.401-0.026-0.799-0.032-1.196-0.032-11.892 0-21.83 9.312-22.458 21.331-0.239 4.57-0.36 9.178-0.36 13.709 0 62.025 21.804 118.935 57.759 153.055-45.727 6.404-89.429 18.493-130.209 36.086-17.812 7.686-34.735 16.289-50.737 25.755-34.871-25.737-65.513-59.265-87.823-96.851-34.809-58.642-47.048-121.777-34.46-177.783 12.93-57.523 51.447-105.069 111.385-137.498 64.62-34.963 153.567-52.672 264.509-52.666 3.184 0 6.398 0.013 9.617 0.038 112.269 1.024 201.869 20.218 266.311 57.050 58.163 33.248 95.219 81.037 107.162 138.208 11.642 55.738-1.158 118.033-36.045 175.41zM546.884 755.006c36.071 0 66.755-10.901 93.826-20.519 18.342-6.514 35.667-12.668 48.358-12.668 0.301 0 0.602 0.006 0.902 0.013-9.6 60.112-68.644 106.527-139.834 106.527-71.32 0-130.449-46.582-139.887-106.856 11.447 1.744 25.95 6.925 41.138 12.354 27.751 9.916 59.187 21.148 95.496 21.148zM760.838 741.654c16.314 5.236 31.789 10.199 45.389 13.94-23.002 31.089-63.386 52.070-109.555 53.046 18.701-21.588 31.731-47.394 37.037-75.557 10.202 3.136 20.064 6.301 27.13 8.571z" />
<glyph unicode="&#xe946;" glyph-name="cats-all" d="M465.92 760.697v-215.040c0-16.295-6.473-31.922-17.995-43.444s-27.15-17.996-43.445-17.996h-215.040c-16.295 0-31.922 6.473-43.445 17.996s-17.995 27.149-17.995 43.444v215.040c0 16.295 6.473 31.923 17.995 43.445s27.15 17.995 43.445 17.995h215.040c16.295 0 31.922-6.473 43.445-17.995s17.995-27.15 17.995-43.445zM834.56 822.137h-215.040c-16.297 0-31.923-6.473-43.443-17.995-11.525-11.522-17.997-27.15-17.997-43.445v-215.040c0-16.295 6.472-31.922 17.997-43.444 11.52-11.523 27.146-17.996 43.443-17.996h215.040c16.297 0 31.923 6.473 43.443 17.996 11.525 11.522 17.997 27.149 17.997 43.444v215.040c0 16.295-6.472 31.923-17.997 43.445-11.52 11.522-27.146 17.995-43.443 17.995zM404.48 392.059h-215.040c-16.295 0-31.922-6.477-43.445-17.997s-17.995-27.151-17.995-43.443v-215.040c0-16.297 6.473-31.923 17.995-43.448 11.523-11.52 27.15-17.992 43.445-17.992h215.040c16.295 0 31.922 6.472 43.445 17.992 11.522 11.525 17.995 27.151 17.995 43.448v215.040c0 16.292-6.473 31.923-17.995 43.443s-27.15 17.997-43.445 17.997zM727.040 392.059c-33.418 0-66.084-9.912-93.87-28.477s-49.439-44.954-62.228-75.827c-12.79-30.874-16.133-64.845-9.615-97.618 6.518-32.778 22.61-62.884 46.239-86.513 23.634-23.629 53.74-39.721 86.513-46.239s66.749-3.174 97.623 9.615c30.874 12.785 57.257 34.442 75.822 62.228 18.57 27.786 28.477 60.452 28.477 93.87 0 44.81-17.802 87.788-49.485 119.47-31.688 31.688-74.665 49.49-119.475 49.49z" />
<glyph unicode="&#xe947;" glyph-name="cats-card" d="M883.671 816.902l-321.782 56.738c-36.188 6.382-70.703-17.785-77.085-53.977l-3.045-17.272c46.538-5.733 85.849-39.257 98.229-85.448l19.666-73.392c10.409 4.515 22.216 6.141 34.227 4.023 22.794-4.020 40.284-20.425 46.797-41.070 13.184 17.172 35.231 26.607 58.025 22.587 32.625-5.753 54.41-36.865 48.655-69.49-12.498-70.889-88.571-127.869-124.672-151.303l55.117-205.706c2.954-11.023 4.188-22.108 3.917-32.983l46.372-8.177c36.193-6.38 70.707 17.787 77.087 53.98l92.467 524.399c6.385 36.195-17.782 70.708-53.975 77.090zM531.779 704.026c-7.967 29.73-34.85 49.338-64.232 49.336-5.7 0-11.496-0.738-17.265-2.284l-315.611-84.566c-35.498-9.512-56.565-46-47.053-81.498l137.819-514.349c7.967-29.727 34.852-49.336 64.233-49.336 5.7 0 11.496 0.737 17.263 2.284l315.613 84.567c35.497 9.513 56.561 46.003 47.053 81.5l-137.82 514.345zM286.185 352.44c-5.351 4.71-7.35 12.17-5.070 18.924l48.26 142.896c4.037 11.953 18.94 15.946 28.413 7.613l113.244-99.621c5.351-4.71 7.35-12.17 5.070-18.924l-48.26-142.894c-4.037-11.955-18.94-15.949-28.413-7.613l-113.244 99.62z" />
<glyph unicode="&#xe948;" glyph-name="cats-dial" d="M919.977 724.502c-29.804 48.568-67.661 91.083-112.522 126.362-10.854 8.534-26.573 6.655-35.108-4.198-8.53-10.853-6.651-26.57 4.198-35.105 40.197-31.608 74.117-69.699 100.813-113.208 4.721-7.69 12.928-11.929 21.335-11.929 4.46 0 8.975 1.192 13.051 3.695 11.766 7.22 15.452 22.615 8.233 34.383zM146.642 250.972c-7.22 11.766-22.615 15.452-34.383 8.233-11.77-7.219-15.455-22.615-8.233-34.381 23.23-37.862 51.625-72.325 84.393-102.436 4.802-4.413 10.863-6.595 16.91-6.595 6.753 0 13.485 2.719 18.415 8.084 9.341 10.163 8.673 25.979-1.494 35.323-29.36 26.982-54.798 57.856-75.608 91.771zM725.335 71.322h-22.333l-12.652 35.768c-54.881-26.685-115.533-40.771-178.35-40.771s-123.466 14.085-178.35 40.771l-12.65-35.768h-22.333c-13.8 0-25-11.203-25-25.001s11.2-25.001 25-25.001h426.668c13.798 0 25.001 11.203 25.001 25.001s-11.203 25.001-25.001 25.001zM437.782 499.661c3.363 9.957 8.67 19.022 15.478 26.742l-83.043 143.835c-54.13-39.35-91.375-100.582-98.598-170.595 0.129 0.002 0.253 0.018 0.382 0.018h165.782zM512 552.992c5.299 0 10.465-0.534 15.468-1.533l83.067 143.85c-9.318 4.184-18.949 7.783-28.851 10.767-3.732-4.817-7.767-9.833-12.114-15.050-14.285-17.117-35.267-26.95-57.569-26.95-22.3 0-43.283 9.833-57.566 26.95-4.35 5.217-8.383 10.233-12.116 15.050-9.9-2.983-19.533-6.583-28.85-10.767l83.067-143.85c5 1 10.166 1.533 15.466 1.533zM512 446.331c15.647 0 28.334 12.688 28.334 28.336s-12.687 28.334-28.334 28.334c-15.648 0-28.333-12.685-28.333-28.334s12.685-28.336 28.333-28.336zM653.783 670.238l-83.041-143.835c6.81-7.72 12.114-16.785 15.478-26.742h165.78c0.128 0 0.256-0.016 0.384-0.018-7.224 70.013-44.472 131.244-98.601 170.595zM628.536 813.712c0.082-1.9 0.133-3.8 0.133-5.716 0-12.6-2.483-30.85-18.002-58.867 15.698-5.65 30.766-12.634 45.082-20.767 0.717-0.316 1.418-0.684 2.099-1.066 0.768-0.45 1.5-0.917 2.186-1.434 85.898-50.8 143.631-144.383 143.631-251.2 0-160.832-130.831-291.668-291.666-291.668-160.833 0-291.666 130.836-291.666 291.668 0 106.817 57.733 200.4 143.633 251.2 0.684 0.517 1.417 0.984 2.184 1.434 0.683 0.383 1.383 0.733 2.083 1.066 14.317 8.133 29.4 15.117 45.1 20.767-15.517 28.017-18 46.266-18 58.867 0 1.916 0.050 3.816 0.134 5.716-50.95-17.466-97.65-46.467-136.85-85.666-67.683-67.684-104.95-157.667-104.95-253.384s37.267-185.7 104.95-253.381c67.683-67.686 157.666-104.95 253.383-104.95s185.702 37.263 253.384 104.95c67.681 67.681 104.95 157.665 104.95 253.381s-37.268 185.7-104.95 253.384c-39.199 39.2-85.898 68.2-136.847 85.666zM752.384 449.675c-0.128-0.002-0.256-0.018-0.384-0.018h-165.78c-3.364-9.956-8.668-19.024-15.478-26.74l83.041-143.836c54.129 39.347 91.377 100.582 98.601 170.594zM370.217 279.081l83.043 143.836c-6.808 7.716-12.115 16.783-15.478 26.74h-165.782c-0.129 0-0.253 0.016-0.382 0.018 7.223-70.011 44.469-131.247 98.598-170.594zM610.524 254.013l-83.057 143.862c-5.002-1.009-10.173-1.541-15.468-1.541s-10.467 0.532-15.469 1.541l-83.057-143.862c30.105-13.496 63.454-21.012 98.525-21.012s68.419 7.516 98.524 21.012zM531.174 723.053c19.697 23.62 47.493 61.168 47.493 84.943 0 36.818-29.85 66.666-66.668 66.666s-66.665-29.848-66.665-66.666c0-23.775 27.798-61.323 47.495-84.943 9.974-11.96 28.371-11.96 38.345 0z" />
</font>
</defs>
</svg>
